<?xml version="1.0" standalone="no"?>
<!DOCTYPE svg PUBLIC "-//W3C//DTD SVG 1.1//EN" "http://www.w3.org/Graphics/SVG/1.1/DTD/svg11.dtd" >
<svg xmlns="http://www.w3.org/2000/svg">
<metadata>Generated by IcoMoon</metadata>
<defs>
<font id="icomoon" horiz-adv-x="1024">
<font-face units-per-em="1024" ascent="960" descent="-64" />
<missing-glyph horiz-adv-x="1024" />
<glyph unicode="&#x20;" horiz-adv-x="512" d="" />
<glyph unicode="&#xe900;" glyph-name="LDF-OK-27" d="M421.888 724.992c18.432 0 34.816-8.192 45.056-20.48h258.048c10.24 0 20.48-8.192 20.48-20.48v-12.288h24.576c6.144 0 14.336-2.048 20.48-4.096v63.488c0 10.24-8.192 20.48-20.48 20.48v0h-276.48c-12.288 0-24.576 6.144-30.72 18.432l-10.24 18.432c-6.144 10.24-18.432 18.432-30.72 18.432h-167.936c-10.24 0-20.48-8.192-20.48-20.48v-63.488c6.144 4.096 12.288 4.096 20.48 4.096l167.936-2.048zM421.888 620.544c18.432 0 34.816-8.192 45.056-20.48h258.048c10.24 0 20.48-8.192 20.48-20.48v-12.288h24.576c6.144 0 14.336-2.048 20.48-4.096v63.488c0 10.24-8.192 20.48-20.48 20.48h-276.48c-12.288 0-24.576 6.144-30.72 18.432l-10.24 18.432c-6.144 10.24-18.432 18.432-30.72 18.432h-169.984c-10.24 0-20.48-8.192-20.48-20.48v-63.488c6.144 4.096 12.288 4.096 20.48 4.096l169.984-2.048zM612.352 325.632c0 40.96 12.288 79.872 36.864 112.64h-423.936c-10.24 0-16.384-8.192-16.384-16.384 0 0 0 0 0-2.048l22.528-307.2c0-8.192 8.192-16.384 16.384-16.384h528.384c8.192 0 16.384 6.144 16.384 16.384l2.048 24.576c-100.352 4.096-182.272 86.016-182.272 188.416zM278.528 475.136c0 10.24 8.192 20.48 20.48 20.48h421.888c22.528 10.24 47.104 16.384 71.68 18.432v10.24c0 10.24-8.192 20.48-20.48 20.48h-278.528c-12.288 0-24.576 6.144-30.72 18.432l-10.24 18.432c-6.144 10.24-18.432 18.432-30.72 18.432h-167.936c-10.24 0-20.48-8.192-20.48-20.48v0-112.64h45.056v8.192zM800.768 399.36c-18.432 0-32.768-14.336-32.768-32.768v-16.384h67.584v16.384c-2.048 18.432-16.384 32.768-34.816 32.768zM800.768 317.44c-8.192 0-16.384-6.144-16.384-16.384 0-6.144 4.096-12.288 8.192-14.336v-10.24c0-4.096 4.096-8.192 8.192-8.192s8.192 4.096 8.192 8.192v10.24c8.192 4.096 10.24 14.336 6.144 22.528-2.048 6.144-8.192 8.192-14.336 8.192zM800.768 489.472c-90.112 0-163.84-73.728-163.84-163.84s73.728-163.84 163.84-163.84 163.84 73.728 163.84 163.84-73.728 163.84-163.84 163.84v0zM866.304 251.904c0-8.192-8.192-16.384-16.384-16.384h-98.304c-8.192 0-16.384 8.192-16.384 16.384v81.92c0 8.192 6.144 16.384 16.384 16.384v16.384c0 26.624 22.528 49.152 49.152 49.152s49.152-22.528 49.152-49.152v-16.384c8.192 0 16.384-8.192 16.384-16.384v-81.92z" />
<glyph unicode="&#xe901;" glyph-name="LDF-OK-26" d="M380.928 581.632c0 8.192-6.144 12.288-12.288 12.288h-131.072c-8.192 0-12.288-6.144-12.288-12.288v-301.056h157.696c-2.048 0-2.048 301.056-2.048 301.056zM800.768 436.224v407.552c0 8.192-6.144 12.288-12.288 12.288h-133.12c-8.192 0-12.288-6.144-12.288-12.288v-450.56c34.816 30.72 77.824 47.104 122.88 47.104 12.288-2.048 22.528-2.048 34.816-4.096zM577.536 724.992h-131.072c-8.192 0-12.288-6.144-12.288-12.288v-432.128h147.456c2.048 12.288 4.096 24.576 8.192 34.816v397.312c0 8.192-4.096 12.288-12.288 12.288 0 0 0 0 0 0zM190.464 241.664c-2.048 0-6.144-2.048-6.144-6.144 0 0 0 0 0 0v-28.672c0-2.048 2.048-6.144 6.144-6.144v0h397.312c-4.096 12.288-6.144 26.624-6.144 38.912l-391.168 2.048zM968.704 106.496l-63.488 57.344c47.104 75.776 24.576 176.128-51.2 225.28s-176.128 24.576-225.28-51.2-24.576-176.128 51.2-225.28c53.248-32.768 120.832-32.768 174.080 0l57.344-65.536c14.336-16.384 40.96-18.432 57.344-4.096 0 0 2.048 2.048 2.048 2.048v0c16.384 16.384 16.384 40.96 0 57.344 0 4.096 0 4.096-2.048 4.096zM854.016 163.84c-47.104-47.104-124.928-47.104-174.080 0s-47.104 124.928 0 174.080 124.928 47.104 174.080 0c0 0 0 0 0 0 43.008-45.056 36.864-122.88 0-174.080zM704.512 290.816v-22.528l24.576 10.24v-79.872h26.624v106.496h-20.48zM813.056 305.152h-16.384v-20.48h-20.48v-16.384h20.48v-22.528h16.384v22.528h20.48v16.384h-20.48z" />
<glyph unicode="&#xe902;" glyph-name="LDF-OK-25" d="M385.024 698.368h253.952c6.144 0 10.24 4.096 10.24 10.24v92.16c0 6.144-4.096 10.24-10.24 10.24h-57.344c2.048 24.576-12.288 49.152-34.816 61.44-34.816 18.432-75.776 6.144-94.208-28.672-6.144-10.24-8.192-22.528-8.192-32.768h-57.344c-6.144 0-10.24-4.096-10.24-10.24v-92.16c-2.048-6.144 2.048-10.24 8.192-10.24zM512 837.632c14.336 0 26.624-12.288 26.624-26.624s-12.288-26.624-26.624-26.624-26.624 12.288-26.624 26.624v0c0 14.336 12.288 26.624 26.624 26.624zM768 372.736v362.496c0 18.432-14.336 32.768-32.768 32.768h-61.44v-59.392c0-20.48-16.384-34.816-34.816-34.816h-253.952c-20.48 0-34.816 16.384-34.816 34.816v59.392h-61.44c-18.432 0-32.768-14.336-32.768-32.768v0-518.144c0-18.432 14.336-32.768 32.768-32.768h290.816c0 104.448 83.968 188.416 188.416 188.416zM378.88 333.824c0-2.048-2.048-4.096-4.096-4.096v0h-26.624c-2.048 0-4.096 2.048-4.096 4.096v0 24.576c0 2.048 2.048 4.096 4.096 4.096v0h24.576c2.048 0 4.096-2.048 4.096-4.096v0l2.048-24.576zM378.88 413.696c0-2.048-2.048-4.096-4.096-4.096v0h-26.624c-2.048 0-4.096 2.048-4.096 4.096v0 24.576c0 2.048 2.048 4.096 4.096 4.096v0h24.576c2.048 0 4.096-2.048 4.096-4.096v0l2.048-24.576zM378.88 491.52c0-2.048-2.048-4.096-4.096-4.096h-26.624c-2.048 0-4.096 2.048-4.096 4.096v24.576c0 2.048 2.048 4.096 4.096 4.096h24.576c2.048 0 4.096-2.048 4.096-4.096l2.048-24.576zM378.88 571.392c0-2.048-2.048-4.096-4.096-4.096h-26.624c-2.048 0-4.096 2.048-4.096 4.096v24.576c0 2.048 2.048 4.096 4.096 4.096h24.576c2.048 0 4.096-2.048 4.096-4.096l2.048-24.576zM405.504 595.968c0 2.048 2.048 4.096 4.096 4.096h266.24c2.048 0 4.096-2.048 4.096-4.096v0-24.576c0-2.048-2.048-4.096-4.096-4.096v0h-266.24c-2.048 0-4.096 2.048-4.096 4.096v24.576zM405.504 518.144c0 2.048 2.048 4.096 4.096 4.096h266.24c2.048 0 4.096-2.048 4.096-4.096v0-26.624c0-2.048-2.048-4.096-4.096-4.096v0h-266.24c-2.048 0-4.096 2.048-4.096 4.096v26.624zM569.344 333.824c0-2.048-2.048-4.096-4.096-4.096v0h-157.696c-2.048 0-4.096 2.048-4.096 4.096v0 24.576c0 2.048 2.048 4.096 4.096 4.096v0h157.696c2.048 0 4.096-2.048 4.096-4.096v0-24.576zM407.552 409.6c-2.048 0-4.096 2.048-4.096 4.096v0 24.576c0 2.048 2.048 4.096 4.096 4.096v0h266.24c2.048 0 4.096-2.048 4.096-4.096v0-24.576c0-2.048-2.048-4.096-4.096-4.096v0h-266.24zM768 348.16c-90.112 0-163.84-73.728-163.84-163.84s73.728-163.84 163.84-163.84 163.84 73.728 163.84 163.84-73.728 163.84-163.84 163.84zM847.872 235.52l-81.92-122.88c-4.096-4.096-8.192-8.192-14.336-8.192 0 0-2.048 0-2.048 0-4.096 0-10.24 2.048-14.336 6.144l-47.104 53.248c-6.144 8.192-6.144 18.432 0 26.624 8.192 6.144 18.432 6.144 26.624 0v0l32.768-34.816 67.584 102.4c6.144 8.192 16.384 10.24 26.624 4.096s12.288-18.432 6.144-26.624v0z" />
<glyph unicode="&#xe903;" glyph-name="LDF-OK-24" d="M385.024 698.368h253.952c6.144 0 10.24 4.096 10.24 10.24v92.16c0 6.144-4.096 10.24-10.24 10.24h-57.344c2.048 24.576-12.288 49.152-34.816 61.44-34.816 18.432-75.776 6.144-94.208-28.672-6.144-10.24-8.192-22.528-8.192-32.768h-57.344c-6.144 0-10.24-4.096-10.24-10.24v-92.16c-2.048-6.144 2.048-10.24 8.192-10.24zM512 837.632c14.336 0 26.624-12.288 26.624-26.624s-12.288-26.624-26.624-26.624-26.624 12.288-26.624 26.624v0c0 14.336 12.288 26.624 26.624 26.624zM768 372.736v362.496c0 18.432-14.336 32.768-32.768 32.768h-61.44v-59.392c0-20.48-16.384-34.816-34.816-34.816h-253.952c-20.48 0-34.816 16.384-34.816 34.816v59.392h-61.44c-18.432 0-32.768-14.336-32.768-32.768v0-518.144c0-18.432 14.336-32.768 32.768-32.768h290.816c0 104.448 83.968 188.416 188.416 188.416zM378.88 333.824c0-2.048-2.048-4.096-4.096-4.096v0h-26.624c-2.048 0-4.096 2.048-4.096 4.096v0 24.576c0 2.048 2.048 4.096 4.096 4.096v0h24.576c2.048 0 4.096-2.048 4.096-4.096v0l2.048-24.576zM378.88 413.696c0-2.048-2.048-4.096-4.096-4.096v0h-26.624c-2.048 0-4.096 2.048-4.096 4.096v0 24.576c0 2.048 2.048 4.096 4.096 4.096v0h24.576c2.048 0 4.096-2.048 4.096-4.096v0l2.048-24.576zM378.88 491.52c0-2.048-2.048-4.096-4.096-4.096h-26.624c-2.048 0-4.096 2.048-4.096 4.096v24.576c0 2.048 2.048 4.096 4.096 4.096h24.576c2.048 0 4.096-2.048 4.096-4.096l2.048-24.576zM378.88 571.392c0-2.048-2.048-4.096-4.096-4.096h-26.624c-2.048 0-4.096 2.048-4.096 4.096v24.576c0 2.048 2.048 4.096 4.096 4.096h24.576c2.048 0 4.096-2.048 4.096-4.096l2.048-24.576zM405.504 595.968c0 2.048 2.048 4.096 4.096 4.096h266.24c2.048 0 4.096-2.048 4.096-4.096v0-24.576c0-2.048-2.048-4.096-4.096-4.096v0h-266.24c-2.048 0-4.096 2.048-4.096 4.096v24.576zM405.504 518.144c0 2.048 2.048 4.096 4.096 4.096h266.24c2.048 0 4.096-2.048 4.096-4.096v0-26.624c0-2.048-2.048-4.096-4.096-4.096v0h-266.24c-2.048 0-4.096 2.048-4.096 4.096v26.624zM569.344 333.824c0-2.048-2.048-4.096-4.096-4.096v0h-157.696c-2.048 0-4.096 2.048-4.096 4.096v0 24.576c0 2.048 2.048 4.096 4.096 4.096v0h157.696c2.048 0 4.096-2.048 4.096-4.096v0-24.576zM407.552 409.6c-2.048 0-4.096 2.048-4.096 4.096v0 24.576c0 2.048 2.048 4.096 4.096 4.096v0h266.24c2.048 0 4.096-2.048 4.096-4.096v0-24.576c0-2.048-2.048-4.096-4.096-4.096v0h-266.24zM768 348.16c-90.112 0-163.84-73.728-163.84-163.84s73.728-163.84 163.84-163.84 163.84 73.728 163.84 163.84-73.728 163.84-163.84 163.84zM745.472 260.096c0 2.048 2.048 4.096 4.096 4.096v0h38.912c2.048 0 4.096-2.048 4.096-4.096v0-57.344h-45.056v57.344zM675.84 223.232c0 2.048 2.048 4.096 4.096 4.096v0h36.864c2.048 0 4.096-2.048 4.096-4.096v0-22.528h-45.056v22.528zM720.896 110.592c0-2.048-2.048-4.096-4.096-4.096v0h-38.912c-2.048 0-4.096 2.048-4.096 4.096v0 57.344h45.056v-57.344zM790.528 110.592c0-2.048-2.048-4.096-4.096-4.096v0h-38.912c-2.048 0-4.096 2.048-4.096 4.096v0 57.344h45.056v-57.344zM860.16 110.592c0-2.048-2.048-4.096-4.096-4.096v0h-36.864c-2.048 0-4.096 2.048-4.096 4.096v0 28.672c0 2.048 2.048 4.096 4.096 4.096v0h38.912c2.048 0 4.096-2.048 4.096-4.096v0-28.672zM876.544 180.224h-217.088v10.24h217.088v-10.24z" />
<glyph unicode="&#xe904;" glyph-name="LDF-OK-23" d="M223.232 696.32c0 14.336 10.24 24.576 24.576 24.576v0h528.384c14.336 0 24.576-10.24 24.576-24.576v0-20.48h57.344v71.68c0 14.336-10.24 24.576-24.576 24.576h-344.064c-16.384 0-30.72 8.192-36.864 22.528l-12.288 22.528c-8.192 14.336-22.528 22.528-36.864 22.528h-210.944c-14.336 0-24.576-10.24-24.576-24.576 0 0 0 0 0 0v-139.264h55.296v20.48zM837.632 415.744c12.288 0 24.576-2.048 34.816-4.096l16.384 215.040c0 12.288-8.192 22.528-20.48 22.528 0 0-2.048 0-2.048 0h-710.656c-12.288 0-20.48-10.24-20.48-20.48 0 0 0-2.048 0-2.048l28.672-378.88c0-10.24 10.24-20.48 20.48-20.48h462.848c2.048 104.448 86.016 188.416 190.464 188.416zM837.632 391.168c-90.112 0-163.84-73.728-163.84-163.84s73.728-163.84 163.84-163.84 163.84 73.728 163.84 163.84-73.728 163.84-163.84 163.84zM917.504 278.528l-81.92-122.88c-4.096-4.096-8.192-8.192-14.336-8.192h-2.048c-4.096 0-10.24 2.048-14.336 6.144l-47.104 51.2c-6.144 8.192-6.144 18.432 0 26.624 8.192 6.144 18.432 6.144 26.624 0l32.768-34.816 67.584 102.4c6.144 8.192 16.384 10.24 26.624 4.096 10.24-4.096 12.288-16.384 6.144-24.576v0 0z" />
<glyph unicode="&#xe905;" glyph-name="LDF-OK-22" d="M894.976 346.112h-30.72v-12.288c0-16.384-14.336-30.72-30.72-30.72s-30.72 14.336-30.72 30.72v12.288h-71.68v-12.288c0-16.384-14.336-30.72-30.72-30.72s-30.72 14.336-30.72 30.72c0 0 0 0 0 0v12.288h-30.72c-14.336 0-24.576-10.24-24.576-24.576v-47.104h303.104v47.104c2.048 14.336-10.24 24.576-22.528 24.576 0 0 0 0 0 0zM512 489.472c90.112 0 161.792 102.4 161.792 190.464s-71.68 161.792-161.792 161.792-161.792-71.68-161.792-161.792c0-90.112 71.68-190.464 161.792-190.464zM616.448 81.92c0-14.336 10.24-24.576 24.576-24.576h253.952c14.336 0 24.576 10.24 24.576 24.576v178.176h-303.104v-178.176zM821.248 215.040c0 2.048 2.048 4.096 4.096 4.096h38.912c2.048 0 4.096-2.048 4.096-4.096v-38.912c0-2.048-2.048-4.096-4.096-4.096h-38.912c-2.048 0-4.096 2.048-4.096 4.096v38.912zM743.424 215.040c0 2.048 2.048 4.096 4.096 4.096h38.912c2.048 0 4.096-2.048 4.096-4.096v-38.912c0-2.048-2.048-4.096-4.096-4.096h-38.912c-2.048 0-4.096 2.048-4.096 4.096v38.912zM743.424 137.216c0 2.048 2.048 4.096 4.096 4.096h38.912c2.048 0 4.096-2.048 4.096-4.096v-38.912c0-2.048-2.048-4.096-4.096-4.096h-38.912c-2.048 0-4.096 2.048-4.096 4.096v38.912zM665.6 215.040c0 2.048 2.048 4.096 4.096 4.096h38.912c2.048 0 4.096-2.048 4.096-4.096v-38.912c0-2.048-2.048-4.096-4.096-4.096h-38.912c-2.048 0-4.096 2.048-4.096 4.096v38.912zM665.6 137.216c0 2.048 2.048 4.096 4.096 4.096h38.912c2.048 0 4.096-2.048 4.096-4.096v-38.912c0-2.048-2.048-4.096-4.096-4.096h-38.912c-2.048 0-4.096 2.048-4.096 4.096v38.912zM671.744 370.688v14.336c0 12.288 8.192 24.576 20.48 28.672-18.432 14.336-38.912 26.624-59.392 36.864-71.68-53.248-167.936-53.248-239.616 0-102.4-47.104-167.936-149.504-167.936-262.144 28.672-16.384 59.392-30.72 90.112-40.96-2.048 36.864 4.096 73.728 16.384 106.496 2.048 6.144 8.192 8.192 14.336 6.144s8.192-8.192 6.144-14.336c-12.288-34.816-16.384-71.68-14.336-106.496 57.344-16.384 116.736-24.576 176.128-24.576 26.624 0 53.248 2.048 79.872 4.096v200.704c0 26.624 22.528 49.152 49.152 49.152l28.672 2.048zM833.536 319.488c8.192 0 14.336 6.144 14.336 14.336v0 51.2c0 8.192-6.144 14.336-14.336 14.336s-14.336-8.192-14.336-14.336v-51.2c0-8.192 6.144-14.336 14.336-14.336v0zM688.128 333.824c0-8.192 6.144-14.336 14.336-14.336s14.336 6.144 14.336 14.336v51.2c0 8.192-6.144 14.336-14.336 14.336s-14.336-6.144-14.336-14.336v-51.2z" />
<glyph unicode="&#xe906;" glyph-name="LDF-OK-21" d="M798.72 438.272h-573.44c-10.24 0-16.384-8.192-16.384-16.384 0 0 0 0 0-2.048l22.528-307.2c0-8.192 8.192-16.384 16.384-16.384h528.384c8.192 0 16.384 6.144 16.384 16.384l22.528 307.2c2.048 10.24-4.096 18.432-16.384 18.432 2.048 0 2.048 0 0 0zM421.888 724.992c18.432 0 34.816-8.192 45.056-20.48h258.048c10.24 0 20.48-8.192 20.48-20.48v-12.288h24.576c6.144 0 14.336-2.048 20.48-4.096v63.488c0 10.24-8.192 20.48-20.48 20.48 0 0 0 0 0 0h-276.48c-12.288 0-24.576 6.144-30.72 18.432l-10.24 18.432c-6.144 10.24-18.432 18.432-30.72 18.432h-167.936c-10.24 0-20.48-8.192-20.48-20.48v0-63.488c6.144 4.096 12.288 4.096 20.48 4.096l167.936-2.048zM421.888 620.544c18.432 0 34.816-8.192 45.056-20.48h258.048c10.24 0 20.48-8.192 20.48-20.48v-12.288h24.576c6.144 0 14.336-2.048 20.48-4.096v63.488c0 10.24-8.192 20.48-20.48 20.48h-276.48c-12.288 0-24.576 6.144-30.72 18.432l-10.24 18.432c-6.144 10.24-18.432 18.432-30.72 18.432h-169.984c-10.24 0-20.48-8.192-20.48-20.48v0-63.488c6.144 4.096 12.288 4.096 20.48 4.096l169.984-2.048zM278.528 475.136c0 10.24 8.192 20.48 20.48 20.48h425.984c10.24 0 20.48-8.192 20.48-20.48v-12.288h45.056v59.392c0 10.24-8.192 20.48-20.48 20.48h-276.48c-12.288 0-24.576 6.144-30.72 18.432l-10.24 18.432c-6.144 10.24-18.432 18.432-30.72 18.432h-167.936c-10.24 0-20.48-8.192-20.48-20.48 0 0 0 0 0 0v-112.64h45.056v10.24z" />
<glyph unicode="&#xe907;" glyph-name="LDF-HT-14" d="M380.928 581.632c0 8.192-6.144 12.288-12.288 12.288h-131.072c-8.192 0-12.288-6.144-12.288-12.288v-301.056h157.696c-2.048 0-2.048 301.056-2.048 301.056zM800.768 436.224v407.552c0 8.192-6.144 12.288-12.288 12.288h-133.12c-8.192 0-12.288-6.144-12.288-12.288v-450.56c34.816 30.72 77.824 47.104 122.88 47.104 12.288-2.048 22.528-2.048 34.816-4.096zM577.536 724.992h-131.072c-8.192 0-12.288-6.144-12.288-12.288v-432.128h147.456c2.048 12.288 4.096 24.576 8.192 34.816v397.312c0 8.192-4.096 12.288-12.288 12.288v0zM190.464 241.664c-2.048 0-6.144-2.048-6.144-6.144 0 0 0 0 0 0v-28.672c0-2.048 2.048-6.144 6.144-6.144v0h397.312c-4.096 12.288-6.144 26.624-6.144 38.912l-391.168 2.048zM768 253.952c22.528 4.096 38.912 22.528 38.912 47.104 0 22.528-18.432 38.912-38.912 38.912-22.528 0-38.912-18.432-38.912-38.912-2.048-22.528 16.384-43.008 38.912-47.104zM796.672 243.712c-18.432-12.288-40.96-12.288-59.392 0-24.576-12.288-40.96-36.864-40.96-63.488 6.144-4.096 14.336-8.192 22.528-10.24 0 8.192 0 18.432 4.096 26.624 0 2.048 2.048 2.048 4.096 2.048s2.048-2.048 2.048-4.096c0 0 0 0 0 0-2.048-8.192-4.096-16.384-4.096-26.624v0c28.672-8.192 57.344-8.192 83.968 0v0c0 8.192 0 18.432-4.096 26.624 0 2.048 0 4.096 2.048 4.096s4.096 0 4.096-2.048c0 0 0 0 0 0 2.048-8.192 4.096-16.384 4.096-26.624 8.192 2.048 14.336 6.144 22.528 10.24 0 28.672-16.384 53.248-40.96 63.488zM968.704 106.496l-63.488 57.344c47.104 75.776 24.576 176.128-51.2 225.28s-176.128 24.576-225.28-51.2-24.576-176.128 51.2-225.28c53.248-32.768 120.832-32.768 174.080 0l57.344-65.536c14.336-16.384 40.96-18.432 57.344-4.096 0 0 2.048 2.048 2.048 2.048v0c16.384 16.384 16.384 40.96 0 57.344 0 4.096 0 4.096-2.048 4.096zM854.016 163.84c-47.104-47.104-124.928-47.104-174.080 0s-47.104 124.928 0 174.080 124.928 47.104 174.080 0c0 0 0 0 0 0 43.008-45.056 36.864-122.88 0-174.080z" />
<glyph unicode="&#xe908;" glyph-name="LDF-HT-13" d="M595.968 245.76c2.048 2.048 4.096 6.144 6.144 8.192 0 4.096 0 8.192 0 10.24-6.144 26.624 10.24 53.248 34.816 61.44 4.096 2.048 6.144 4.096 10.24 6.144 2.048 2.048 4.096 6.144 6.144 10.24 4.096 12.288 12.288 22.528 24.576 28.672 8.192 4.096 18.432 6.144 26.624 6.144 4.096 0 6.144 0 10.24 0 2.048 0 4.096 0 8.192 0 2.048 0 2.048 0 4.096 0 2.048 2.048 6.144 4.096 8.192 6.144 10.24 8.192 22.528 12.288 36.864 14.336v337.92c0 18.432-14.336 32.768-32.768 32.768h-61.44v-59.392c0-20.48-16.384-34.816-34.816-34.816h-258.048c-20.48 0-34.816 16.384-34.816 34.816v59.392h-61.44c-18.432 0-32.768-14.336-32.768-32.768v0-518.144c0-18.432 14.336-32.768 32.768-32.768h299.008c-4.096 8.192-6.144 16.384-8.192 24.576 2.048 14.336 8.192 26.624 16.384 36.864zM374.784 329.728h-24.576c-2.048 0-4.096 2.048-4.096 4.096v0 24.576c0 2.048 2.048 4.096 4.096 4.096v0h24.576c2.048 0 4.096-2.048 4.096-4.096v0-24.576c0-2.048-2.048-4.096-4.096-4.096v0zM374.784 409.6h-24.576c-2.048 0-4.096 2.048-4.096 4.096v0 24.576c0 2.048 2.048 4.096 4.096 4.096v0h24.576c2.048 0 4.096-2.048 4.096-4.096v0-24.576c0-2.048-2.048-4.096-4.096-4.096v0zM374.784 489.472h-24.576c-2.048 0-4.096 2.048-4.096 4.096v24.576c0 2.048 2.048 4.096 4.096 4.096h24.576c2.048 0 4.096-2.048 4.096-4.096v-26.624c0-2.048-2.048-2.048-4.096-2.048v0zM374.784 567.296h-24.576c-2.048 0-4.096 2.048-4.096 4.096v24.576c0 2.048 2.048 4.096 4.096 4.096h24.576c2.048 0 4.096-2.048 4.096-4.096v-24.576c0-2.048-2.048-4.096-4.096-4.096v0zM407.552 600.064h266.24c2.048 0 4.096-2.048 4.096-4.096v0-24.576c0-2.048-2.048-4.096-4.096-4.096v0h-266.24c-2.048 0-4.096 2.048-4.096 4.096v24.576c2.048 2.048 2.048 4.096 4.096 4.096 0 0 0 0 0 0v0zM407.552 522.24h266.24c2.048 0 4.096-2.048 4.096-4.096v0-26.624c0-2.048-2.048-4.096-4.096-4.096v0h-266.24c-2.048 0-4.096 2.048-4.096 4.096v24.576c2.048 4.096 2.048 6.144 4.096 6.144 0 0 0 0 0 0v0zM407.552 442.368h266.24c2.048 0 4.096-2.048 4.096-4.096v0-24.576c0-2.048-2.048-4.096-4.096-4.096v0h-266.24c-2.048 0-4.096 2.048-4.096 4.096v0 24.576c2.048 2.048 2.048 4.096 4.096 4.096 0 0 0 0 0 0v0zM565.248 329.728h-157.696c-2.048 0-4.096 2.048-4.096 4.096v0 24.576c0 2.048 2.048 4.096 4.096 4.096v0h157.696c2.048 0 4.096-2.048 4.096-4.096v0-24.576c0-2.048-2.048-4.096-4.096-4.096v0zM847.872 71.68c12.288 6.144 14.336 24.576 24.576 34.816s28.672 12.288 34.816 24.576 0 28.672 4.096 43.008c4.096 12.288 18.432 24.576 18.432 38.912s-14.336 24.576-18.432 38.912c-4.096 12.288 4.096 30.72-4.096 43.008s-24.576 14.336-34.816 24.576-12.288 28.672-24.576 34.816-28.672 0-43.008 4.096c-12.288 4.096-24.576 18.432-38.912 18.432s-24.576-14.336-38.912-18.432c-12.288-4.096-30.72 4.096-43.008-4.096s-14.336-24.576-24.576-34.816-28.672-12.288-34.816-24.576 0-28.672-4.096-43.008c-4.096-12.288-18.432-24.576-18.432-38.912s14.336-24.576 18.432-38.912c4.096-12.288-4.096-30.72 4.096-43.008s24.576-14.336 34.816-24.576 12.288-28.672 24.576-34.816 28.672 0 43.008-4.096c12.288-4.096 24.576-18.432 38.912-18.432s24.576 14.336 38.912 18.432c14.336 4.096 32.768-4.096 43.008 4.096zM768 104.448c-59.392 0-106.496 47.104-106.496 106.496s47.104 106.496 106.496 106.496 106.496-47.104 106.496-106.496c0 0 0 0 0 0 0-59.392-47.104-106.496-106.496-106.496v0zM768 292.864c-45.056 0-81.92-36.864-81.92-81.92s36.864-81.92 81.92-81.92 81.92 36.864 81.92 81.92c0 0 0 0 0 0 0 45.056-36.864 81.92-81.92 81.92zM385.024 698.368h253.952c6.144 0 10.24 4.096 10.24 10.24v92.16c0 6.144-4.096 10.24-10.24 10.24h-57.344c2.048 24.576-12.288 49.152-34.816 61.44-34.816 18.432-75.776 6.144-94.208-28.672-6.144-10.24-8.192-22.528-8.192-32.768h-57.344c-6.144 0-10.24-4.096-10.24-10.24v-92.16c-2.048-6.144 2.048-10.24 8.192-10.24zM512 837.632c14.336 0 26.624-12.288 26.624-26.624s-12.288-26.624-26.624-26.624-26.624 12.288-26.624 26.624v0c0 14.336 12.288 26.624 26.624 26.624zM702.464 43.008c-10.24 0-18.432 2.048-26.624 6.144-10.24 8.192-18.432 18.432-24.576 28.672-2.048 4.096-4.096 6.144-6.144 10.24-2.048 2.048-4.096 2.048-6.144 4.096l-47.104-81.92c-2.048-4.096 0-6.144 4.096-4.096l47.104 10.24c4.096 0 8.192-2.048 8.192-6.144l14.336-45.056c2.048-4.096 4.096-4.096 6.144 0l47.104 79.872c-2.048 0-4.096 0-4.096 0-6.144-2.048-10.24-2.048-12.288-2.048zM944.128 10.24l-47.104 81.92c-2.048 0-4.096-2.048-6.144-4.096s-4.096-6.144-6.144-10.24c-4.096-12.288-12.288-22.528-24.576-28.672-8.192-4.096-18.432-6.144-26.624-6.144-4.096 0-6.144 0-10.24 0-2.048 0-4.096 0-4.096 0l47.104-79.872c2.048-4.096 4.096-4.096 6.144 0l14.336 45.056c2.048 4.096 4.096 6.144 8.192 6.144l47.104-10.24c2.048 0 4.096 2.048 2.048 6.144z" />
<glyph unicode="&#xe909;" glyph-name="LDF-HT-12" d="M223.232 614.4c0 14.336 10.24 24.576 24.576 24.576v0h528.384c14.336 0 24.576-10.24 24.576-24.576v0-20.48h57.344v71.68c0 14.336-10.24 24.576-24.576 24.576h-344.064c-16.384 0-30.72 8.192-36.864 22.528l-12.288 22.528c-8.192 14.336-22.528 22.528-36.864 22.528h-210.944c-14.336 0-24.576-10.24-24.576-24.576 0 0 0 0 0 0v-139.264h55.296v20.48zM868.352 569.344h-712.704c-12.288 0-20.48-10.24-20.48-20.48 0 0 0-2.048 0-2.048l28.672-380.928c0-10.24 10.24-20.48 20.48-20.48h655.36c10.24 0 20.48 8.192 20.48 20.48l28.672 380.928c0 10.24-8.192 20.48-20.48 22.528 0 0 0 0 0 0z" />
<glyph unicode="&#xe90a;" glyph-name="LDF-HT-11" d="M368.64 432.128c-20.48 32.768-51.2 59.392-86.016 73.728-49.152-36.864-116.736-36.864-165.888 0-71.68-32.768-116.736-102.4-116.736-182.272 18.432-12.288 40.96-20.48 61.44-28.672 0 24.576 2.048 49.152 10.24 71.68 2.048 4.096 6.144 8.192 10.24 6.144s8.192-6.144 6.144-10.24c0 0 0 0 0 0-8.192-22.528-12.288-47.104-10.24-71.68 38.912-10.24 79.872-16.384 120.832-16.384 18.432 0 36.864 2.048 55.296 4.096 20.48 61.44 59.392 116.736 114.688 153.6zM907.264 505.856c-49.152-36.864-116.736-36.864-165.888 0-34.816-16.384-65.536-43.008-86.016-73.728 55.296-34.816 96.256-90.112 112.64-153.6 18.432-2.048 36.864-4.096 55.296-4.096 40.96 0 81.92 6.144 120.832 16.384 2.048 24.576-2.048 49.152-10.24 71.68-2.048 4.096 2.048 10.24 6.144 10.24 4.096 2.048 8.192 0 10.24-6.144 8.192-22.528 12.288-47.104 10.24-71.68 20.48 8.192 43.008 16.384 61.44 28.672 2.048 79.872-43.008 149.504-114.688 182.272zM200.704 532.48c61.44 0 112.64 69.632 112.64 133.12 0 61.44-51.2 112.64-112.64 112.64s-112.64-51.2-112.64-112.64c0-61.44 49.152-133.12 112.64-133.12zM823.296 532.48c61.44 0 112.64 69.632 112.64 133.12 0 61.44-51.2 112.64-112.64 112.64s-112.64-51.2-112.64-112.64c2.048-61.44 51.2-133.12 112.64-133.12zM512 452.608c73.728 0 131.072 81.92 131.072 155.648 2.048 73.728-55.296 133.12-126.976 135.168s-133.12-55.296-135.168-126.976c0-2.048 0-6.144 0-8.192 0-71.68 57.344-155.648 131.072-155.648zM610.304 421.888c-57.344-43.008-137.216-43.008-196.608 0-83.968-38.912-137.216-120.832-137.216-212.992 22.528-14.336 47.104-26.624 73.728-34.816-2.048 30.72 2.048 59.392 12.288 88.064 2.048 4.096 6.144 6.144 12.288 6.144 4.096-2.048 6.144-6.144 6.144-10.24-10.24-28.672-14.336-57.344-12.288-88.064 94.208-26.624 192.512-26.624 286.72 0 2.048 28.672-2.048 59.392-12.288 88.064-2.048 4.096 0 10.24 6.144 10.24 4.096 2.048 10.24 0 10.24-6.144 10.24-28.672 14.336-57.344 12.288-88.064 26.624 8.192 51.2 20.48 73.728 34.816 2.048 92.16-51.2 174.080-135.168 212.992z" />
<glyph unicode="&#xe90b;" glyph-name="LDF-HT4-62" d="M774.144 270.336c0 26.624-16.384 34.816-40.96 34.816-10.24 0-20.48-2.048-30.72-6.144v-20.48c8.192 2.048 18.432 4.096 28.672 4.096 12.288 0 18.432-4.096 18.432-14.336 0-12.288-14.336-22.528-24.576-30.72l-22.528-18.432v-22.528h69.632l2.048 22.528h-43.008l12.288 8.192c10.24 8.192 30.72 20.48 30.72 43.008zM827.392 305.152h-16.384v-20.48h-22.528v-16.384h22.528v-22.528h16.384v22.528h20.48v16.384h-20.48zM380.928 581.632c0 8.192-6.144 12.288-12.288 12.288h-131.072c-8.192 0-12.288-6.144-12.288-12.288v-301.056h157.696c-2.048 0-2.048 301.056-2.048 301.056zM800.768 436.224v407.552c0 8.192-6.144 12.288-12.288 12.288h-133.12c-8.192 0-12.288-6.144-12.288-12.288v-450.56c34.816 30.72 77.824 47.104 122.88 47.104 12.288-2.048 22.528-2.048 34.816-4.096zM577.536 724.992h-131.072c-8.192 0-12.288-6.144-12.288-12.288v-432.128h147.456c2.048 12.288 4.096 24.576 8.192 34.816v397.312c0 8.192-4.096 12.288-12.288 12.288v0zM190.464 241.664c-2.048 0-6.144-2.048-6.144-6.144 0 0 0 0 0 0v-28.672c0-2.048 2.048-6.144 6.144-6.144v0h397.312c-4.096 12.288-6.144 26.624-6.144 38.912l-391.168 2.048zM968.704 106.496l-63.488 57.344c47.104 75.776 24.576 176.128-51.2 225.28s-176.128 24.576-225.28-51.2-24.576-176.128 51.2-225.28c53.248-32.768 120.832-32.768 174.080 0l57.344-65.536c14.336-16.384 40.96-18.432 57.344-4.096 0 0 2.048 2.048 2.048 2.048v0c16.384 16.384 16.384 40.96 0 57.344 0 4.096 0 4.096-2.048 4.096zM854.016 163.84c-47.104-47.104-124.928-47.104-174.080 0s-47.104 124.928 0 174.080 124.928 47.104 174.080 0c0 0 0 0 0 0 43.008-45.056 36.864-122.88 0-174.080z" />
<glyph unicode="&#xe90c;" glyph-name="LDF-HT4-61" d="M380.928 581.632c0 8.192-6.144 12.288-12.288 12.288h-131.072c-8.192 0-12.288-6.144-12.288-12.288v-301.056h157.696c-2.048 0-2.048 301.056-2.048 301.056zM800.768 436.224v407.552c0 8.192-6.144 12.288-12.288 12.288h-133.12c-8.192 0-12.288-6.144-12.288-12.288v-450.56c34.816 30.72 77.824 47.104 122.88 47.104 12.288-2.048 22.528-2.048 34.816-4.096zM577.536 724.992h-131.072c-8.192 0-12.288-6.144-12.288-12.288v-432.128h147.456c2.048 12.288 4.096 24.576 8.192 34.816v397.312c0 8.192-4.096 12.288-12.288 12.288 0 0 0 0 0 0zM190.464 241.664c-2.048 0-6.144-2.048-6.144-6.144 0 0 0 0 0 0v-28.672c0-2.048 2.048-6.144 6.144-6.144v0h397.312c-4.096 12.288-6.144 26.624-6.144 38.912l-391.168 2.048zM968.704 106.496l-63.488 57.344c47.104 75.776 24.576 176.128-51.2 225.28s-176.128 24.576-225.28-51.2-24.576-176.128 51.2-225.28c53.248-32.768 120.832-32.768 174.080 0l57.344-65.536c14.336-16.384 40.96-18.432 57.344-4.096 0 0 2.048 2.048 2.048 2.048v0c16.384 16.384 16.384 40.96 0 57.344 0 4.096 0 4.096-2.048 4.096zM854.016 163.84c-47.104-47.104-124.928-47.104-174.080 0s-47.104 124.928 0 174.080 124.928 47.104 174.080 0c0 0 0 0 0 0 43.008-45.056 36.864-122.88 0-174.080zM704.512 290.816v-22.528l24.576 10.24v-79.872h26.624v106.496h-20.48zM813.056 305.152h-16.384v-20.48h-20.48v-16.384h20.48v-22.528h16.384v22.528h20.48v16.384h-20.48z" />
<glyph unicode="&#xe90d;" glyph-name="LDF-HT3-56" d="M512 817.152c-202.752 0-366.592-163.84-366.592-366.592s163.84-366.592 366.592-366.592 366.592 163.84 366.592 366.592v0c0 202.752-163.84 366.592-366.592 366.592zM499.712 253.952c-30.72 0-53.248 24.576-53.248 55.296 0 28.672 24.576 53.248 53.248 53.248 30.72 0 53.248-24.576 53.248-55.296 0-28.672-24.576-53.248-53.248-53.248zM563.2 487.424c-18.432-12.288-28.672-32.768-30.72-53.248 0-12.288 2.048-24.576 4.096-36.864h-67.584c-2.048 10.24-4.096 22.528-4.096 32.768 0 32.768 14.336 65.536 40.96 86.016 14.336 10.24 22.528 26.624 24.576 45.056 0 18.432-12.288 24.576-36.864 24.576-24.576-2.048-49.152-8.192-71.68-16.384v57.344c26.624 10.24 53.248 16.384 81.92 18.432 53.248 0 100.352-18.432 100.352-83.968-2.048-28.672-16.384-55.296-40.96-73.728z" />
<glyph unicode="&#xe90e;" glyph-name="LDF-HT3-55" d="M512 817.152c-202.752 0-366.592-163.84-366.592-366.592s163.84-366.592 366.592-366.592 366.592 163.84 366.592 366.592v0c0 202.752-163.84 366.592-366.592 366.592zM677.888 401.408c0-4.096-2.048-6.144-6.144-6.144h-98.304c-4.096 0-6.144-2.048-6.144-6.144v-98.304c0-4.096-2.048-6.144-6.144-6.144h-96.256c-4.096 0-6.144 2.048-6.144 6.144v98.304c0 4.096-2.048 6.144-6.144 6.144h-98.304c-4.096 0-6.144 2.048-6.144 6.144v96.256c0 4.096 2.048 6.144 6.144 6.144h96.256c4.096 0 6.144 2.048 6.144 6.144v98.304c0 4.096 2.048 6.144 6.144 6.144h96.256c4.096 0 6.144-2.048 6.144-6.144v-96.256c0-4.096 2.048-6.144 6.144-6.144h98.304c4.096 0 6.144-2.048 6.144-6.144l2.048-98.304z" />
<glyph unicode="&#xe90f;" glyph-name="LDF-HT3-54" d="M512 817.152c-202.752 0-366.592-163.84-366.592-366.592s163.84-366.592 366.592-366.592 366.592 163.84 366.592 366.592v0c0 202.752-163.84 366.592-366.592 366.592zM421.888 401.408v219.136c0 12.288 10.24 20.48 20.48 20.48 12.288 0 20.48-10.24 20.48-20.48v-149.504c0-4.096 4.096-8.192 8.192-8.192s8.192 4.096 8.192 8.192v182.272c0 12.288 10.24 20.48 20.48 20.48 12.288 0 20.48-10.24 20.48-20.48v-182.272c0-4.096 4.096-8.192 8.192-8.192s8.192 4.096 8.192 8.192v143.36c0 12.288 10.24 20.48 20.48 20.48 12.288 0 20.48-10.24 20.48-20.48 0 0 0 0 0 0v-143.36c0-4.096 4.096-8.192 8.192-8.192s8.192 4.096 8.192 8.192v0 83.968c0 12.288 10.24 20.48 20.48 20.48 12.288 0 20.48-10.24 20.48-20.48v-219.136c0-59.392-49.152-108.544-108.544-108.544-38.912 0-73.728 20.48-94.208 53.248l-98.304 174.080c14.336 12.288 34.816 10.24 45.056-4.096 0 0 2.048-2.048 2.048-2.048l40.96-47.104z" />
<glyph unicode="&#xe910;" glyph-name="LDF-HT3-53" d="M512 671.744c47.104 0 86.016 53.248 86.016 102.4 0 47.104-36.864 86.016-86.016 88.064s-86.016-36.864-88.064-86.016c0 0 0-2.048 0-2.048 2.048-47.104 40.96-102.4 88.064-102.4zM575.488 651.264c-38.912-28.672-90.112-28.672-129.024 0-55.296-24.576-90.112-79.872-90.112-139.264v-116.736c0-28.672 20.48-51.2 47.104-59.392v190.464c0 4.096 2.048 6.144 6.144 8.192s6.144-2.048 8.192-6.144c0 0 0 0 0 0v-192.512l18.432-221.184c2.048-40.96 36.864-71.68 77.824-69.632 36.864 2.048 67.584 32.768 69.632 69.632l18.432 221.184v192.512c0 4.096 2.048 6.144 6.144 8.192s6.144-2.048 8.192-6.144c0 0 0 0 0 0v-190.464c26.624 6.144 47.104 30.72 47.104 59.392v116.736c2.048 55.296-32.768 110.592-88.064 135.168z" />
<glyph unicode="&#xe911;" glyph-name="LDF-HT3-52" d="M595.968 589.824c-104.448-32.768-217.088-30.72-321.536 6.144-22.528 8.192-40.96 20.48-57.344 38.912v-43.008c14.336-18.432 34.816-30.72 57.344-38.912 104.448-36.864 217.088-38.912 321.536-6.144 22.528 6.144 43.008 20.48 59.392 36.864v43.008c-16.384-16.384-36.864-30.72-59.392-36.864zM438.272 481.28c-55.296 0-112.64 10.24-163.84 28.672-22.528 8.192-40.96 20.48-57.344 38.912v-43.008c14.336-18.432 34.816-30.72 57.344-38.912 43.008-16.384 90.112-26.624 135.168-28.672 6.144 16.384 16.384 30.72 28.672 43.008zM405.504 395.264c-45.056 2.048-90.112 12.288-133.12 28.672-22.528 8.192-40.96 20.48-57.344 38.912v-43.008c14.336-18.432 34.816-30.72 57.344-38.912 43.008-16.384 88.064-26.624 133.12-28.672v43.008zM405.504 309.248c-45.056 2.048-90.112 12.288-133.12 28.672-22.528 8.192-40.96 20.48-57.344 38.912v-43.008c14.336-18.432 34.816-30.72 57.344-38.912 43.008-16.384 88.064-26.624 133.12-28.672v43.008zM591.872 755.712c-100.352 34.816-208.896 36.864-309.248 6.144-86.016-30.72-86.016-86.016-2.048-120.832 100.352-34.816 206.848-36.864 309.248-6.144 86.016 30.72 86.016 83.968 2.048 120.832zM577.536 681.984c-8.192-4.096-16.384-10.24-24.576-12.288-49.152-16.384-102.4-20.48-153.6-8.192l-20.48-8.192c-2.048 0-4.096 0-6.144 0l-12.288 4.096c-2.048 0-2.048 2.048 0 2.048l16.384 6.144c-4.096 2.048-8.192 2.048-10.24 4.096s-6.144 2.048-8.192 4.096l-16.384-6.144c-2.048 0-4.096 0-6.144 0l-12.288 4.096c-2.048 0-2.048 2.048 0 2.048l18.432 6.144c-24.576 18.432-22.528 40.96 28.672 59.392 10.24 4.096 18.432 6.144 28.672 8.192 2.048 0 4.096 0 6.144 0 0 0 0 0 0 0l12.288-10.24c2.048 0 0-2.048-2.048-2.048-8.192-2.048-14.336-4.096-22.528-6.144-32.768-12.288-34.816-26.624-22.528-38.912l71.68 26.624c2.048 0 4.096 0 6.144 0v0l8.192-6.144c2.048 0 0-2.048 0-2.048l-73.728-26.624c2.048-2.048 4.096-2.048 8.192-4.096s6.144-2.048 10.24-4.096l69.632 26.624c2.048 0 4.096 0 6.144 0v0l8.192-6.144c2.048 0 0-2.048 0-2.048l-63.488-22.528c32.768-6.144 67.584-4.096 98.304 6.144 6.144 2.048 12.288 6.144 18.432 10.24 2.048 2.048 6.144 2.048 8.192 0l20.48-6.144c10.24 4.096 10.24 2.048 10.24 2.048zM833.536 301.056c-106.496-32.768-219.136-30.72-321.536 6.144-22.528 8.192-40.96 20.48-57.344 38.912v-43.008c14.336-18.432 34.816-30.72 55.296-38.912 104.448-36.864 217.088-38.912 321.536-6.144 22.528 6.144 43.008 20.48 59.392 36.864v43.008c-16.384-16.384-34.816-30.72-57.344-36.864zM833.536 215.040c-106.496-32.768-219.136-30.72-321.536 6.144-22.528 8.192-40.96 20.48-57.344 38.912v-43.008c14.336-18.432 34.816-30.72 57.344-38.912 104.448-36.864 217.088-38.912 321.536-6.144 22.528 6.144 43.008 20.48 59.392 36.864v43.008c-18.432-16.384-36.864-30.72-59.392-36.864zM829.44 466.944c-100.352 34.816-208.896 36.864-309.248 6.144-86.016-30.72-86.016-86.016-2.048-120.832 100.352-34.816 208.896-36.864 309.248-6.144 83.968 30.72 86.016 83.968 2.048 120.832zM813.056 393.216c-8.192-4.096-16.384-10.24-24.576-12.288-49.152-16.384-102.4-20.48-153.6-8.192l-20.48-8.192c-2.048 0-4.096 0-6.144 0l-12.288 4.096c-2.048 0-2.048 2.048 0 2.048l16.384 6.144c-4.096 2.048-8.192 2.048-10.24 4.096s-6.144 2.048-8.192 4.096l-16.384-6.144c-2.048 0-4.096 0-6.144 0l-12.288 4.096c-2.048 0-2.048 2.048 0 2.048l18.432 6.144c-24.576 18.432-22.528 40.96 28.672 59.392 10.24 4.096 18.432 6.144 28.672 8.192 2.048 0 4.096 0 6.144 0 0 0 0 0 0 0l12.288-10.24c2.048 0 0-2.048-2.048-2.048-8.192-2.048-14.336-4.096-22.528-6.144-32.768-12.288-34.816-26.624-22.528-38.912l71.68 26.624c2.048 0 4.096 0 6.144 0v0l8.192-6.144c2.048 0 0-2.048 0-2.048l-73.728-26.624c2.048-2.048 4.096-2.048 8.192-4.096s6.144-2.048 10.24-4.096l69.632 26.624c2.048 0 4.096 0 6.144 0 0 0 0 0 0 0l8.192-6.144c2.048 0 0-2.048 0-2.048l-63.488-22.528c32.768-6.144 67.584-4.096 98.304 6.144 6.144 2.048 12.288 6.144 18.432 10.24 2.048 2.048 6.144 2.048 8.192 0l20.48-6.144c12.288 4.096 12.288 4.096 10.24 2.048z" />
<glyph unicode="&#xe912;" glyph-name="LDF-HT3-51" d="M833.536 446.464c0 110.592-90.112 200.704-200.704 200.704-81.92 0-155.648-49.152-186.368-124.928 34.816-16.384 65.536-40.96 88.064-71.68 2.048 12.288 14.336 18.432 24.576 16.384 12.288-2.048 18.432-14.336 16.384-24.576s-10.24-16.384-20.48-16.384c-2.048 0-4.096 0-4.096 0 28.672-51.2 34.816-112.64 18.432-169.984 57.344-18.432 120.832-10.24 172.032 22.528l92.16-30.72-28.672 94.208c18.432 30.72 28.672 67.584 28.672 104.448zM632.832 423.936c-12.288 0-20.48 10.24-20.48 22.528s10.24 20.48 20.48 20.48c12.288 0 20.48-10.24 20.48-22.528 0-10.24-10.24-20.48-20.48-20.48zM708.608 423.936c-12.288 0-20.48 10.24-20.48 22.528s10.24 20.48 20.48 20.48c12.288 0 20.48-10.24 20.48-22.528 0-10.24-8.192-20.48-20.48-20.48zM276.48 337.92c-12.288 0-22.528-10.24-22.528-20.48 0-12.288 10.24-22.528 20.48-22.528 12.288 0 22.528 10.24 22.528 20.48 0 0 0 0 0 0 0 12.288-8.192 22.528-20.48 22.528 0 0 0 0 0 0zM352.256 337.92c-12.288 0-22.528-10.24-22.528-20.48 0-12.288 10.24-22.528 20.48-22.528 12.288 0 22.528 10.24 22.528 20.48 0 0 0 0 0 0 2.048 12.288-8.192 22.528-20.48 22.528 0 0 0 0 0 0zM430.080 337.92c-12.288 0-22.528-10.24-22.528-20.48 0-12.288 10.24-22.528 20.48-22.528 12.288 0 22.528 10.24 22.528 20.48 0 0 0 0 0 0 0 12.288-8.192 22.528-20.48 22.528 0 0 0 0 0 0zM385.024 610.304h43.008v176.128h-34.816l-49.152-24.576v-36.864l40.96 18.432zM481.28 688.128l18.432 32.768 18.432-32.768h30.72l-32.768 51.2 30.72 47.104h-30.72l-16.384-30.72-14.336 30.72h-32.768l32.768-47.104-34.816-51.2zM352.256 518.144c-110.592 0-200.704-90.112-200.704-200.704 0-36.864 10.24-73.728 30.72-106.496l-28.672-94.208 92.16 30.72c94.208-59.392 217.088-32.768 278.528 59.392s32.768 217.088-59.392 278.528c-34.816 20.48-73.728 32.768-112.64 32.768v0zM352.256 147.456c-32.768 0-63.488 10.24-90.112 26.624-8.192 6.144-18.432 6.144-28.672 4.096l-30.72-10.24 10.24 32.768c2.048 8.192 2.048 18.432-4.096 26.624-49.152 79.872-24.576 182.272 55.296 231.424s182.272 24.576 231.424-55.296 24.576-182.272-55.296-231.424c-26.624-14.336-57.344-24.576-88.064-24.576v0z" />
<glyph unicode="&#xe913;" glyph-name="LDF-HT2-43" d="M223.232 696.32c0 14.336 10.24 24.576 24.576 24.576v0h528.384c14.336 0 24.576-10.24 24.576-24.576v0-20.48h57.344v71.68c0 14.336-10.24 24.576-24.576 24.576h-344.064c-16.384 0-30.72 8.192-36.864 22.528l-12.288 22.528c-8.192 14.336-22.528 22.528-36.864 22.528h-210.944c-14.336 0-24.576-10.24-24.576-24.576 0 0 0 0 0 0v-139.264h55.296v20.48zM837.632 391.168c-90.112 0-163.84-73.728-163.84-163.84s73.728-163.84 163.84-163.84 163.84 73.728 163.84 163.84-73.728 163.84-163.84 163.84zM815.104 303.104c0 2.048 2.048 4.096 4.096 4.096v0h38.912c2.048 0 4.096-2.048 4.096-4.096v0-57.344h-45.056v57.344zM743.424 266.24c0 2.048 2.048 4.096 4.096 4.096v0h38.912c2.048 0 4.096-2.048 4.096-4.096v0-22.528h-45.056l-2.048 22.528zM790.528 153.6c0-2.048-2.048-4.096-4.096-4.096v0h-38.912c-2.048 0-4.096 2.048-4.096 4.096v0 57.344h45.056v-57.344zM860.16 153.6c0-2.048-2.048-4.096-4.096-4.096v0h-38.912c-2.048 0-4.096 2.048-4.096 4.096v0 57.344h47.104v-57.344zM929.792 153.6c0-2.048-2.048-4.096-4.096-4.096v0h-38.912c-2.048 0-4.096 2.048-4.096 4.096v0 28.672c0 2.048 2.048 4.096 4.096 4.096v0h38.912c2.048 0 4.096-2.048 4.096-4.096v0-28.672zM946.176 223.232h-217.088v10.24h217.088v-10.24zM837.632 415.744c12.288 0 24.576-2.048 34.816-4.096l16.384 215.040c0 12.288-8.192 22.528-20.48 22.528 0 0-2.048 0-2.048 0h-710.656c-12.288 0-20.48-10.24-20.48-20.48 0 0 0-2.048 0-2.048l28.672-378.88c0-10.24 10.24-20.48 20.48-20.48h462.848c2.048 104.448 86.016 188.416 190.464 188.416z" />
<glyph unicode="&#xe914;" glyph-name="LDF-HT2-42" d="M856.064 747.52c0 14.336-10.24 24.576-24.576 24.576h-342.016c-16.384 0-30.72 8.192-36.864 22.528l-12.288 22.528c-8.192 14.336-22.528 22.528-36.864 22.528h-210.944c-14.336 0-24.576-10.24-24.576-24.576 0 0 0 0 0 0v-139.264h690.176v71.68zM837.632 415.744v0c6.144 0 10.24 0 16.384 0s12.288-2.048 18.432-2.048l16.384 215.040c0 12.288-8.192 22.528-20.48 22.528 0 0-2.048 0-2.048 0h-710.656c-12.288 0-20.48-10.24-20.48-20.48 0 0 0-2.048 0-2.048l28.672-380.928c0-10.24 10.24-20.48 20.48-20.48h462.848c0 6.144 0 10.24 0 16.384 12.288 98.304 92.16 172.032 190.464 172.032zM835.584 391.168c6.144 0 10.24 0 16.384 0-6.144 0-10.24 0-16.384 0v0zM851.968 391.168c-90.112 8.192-169.984-59.392-178.176-149.504s59.392-169.984 149.504-178.176 169.984 59.392 178.176 149.504v0c6.144 90.112-59.392 169.984-149.504 178.176zM860.16 120.832v0c-2.048 0-2.048 0-2.048 0-6.144 0-10.24 4.096-10.24 10.24 0 4.096 4.096 8.192 8.192 10.24 6.144 0 10.24-2.048 12.288-8.192 0-6.144-4.096-10.24-8.192-12.288 0 0 0 0 0 0v0zM892.928 133.12v0c-2.048-2.048-4.096-4.096-8.192-4.096-6.144 0-10.24 4.096-10.24 10.24 0 2.048 0 4.096 2.048 6.144 4.096 4.096 10.24 4.096 14.336 0 4.096-2.048 4.096-6.144 2.048-12.288 0 2.048 0 0 0 0s0 0 0 0zM890.88 239.616l-51.2-20.48c-2.048 0-2.048 0-4.096 0v0c-2.048 0-2.048 0-4.096 0s-2.048 2.048-2.048 2.048c0 0 0 0 0 0s-2.048 2.048-2.048 2.048v0 0c0 0 0 2.048 0 2.048s0 2.048 0 2.048v69.632c0 6.144 4.096 10.24 10.24 10.24s10.24-4.096 10.24-10.24v-53.248l36.864 14.336c4.096 2.048 10.24 0 12.288-6.144 2.048-4.096 0-10.24-6.144-12.288v0zM915.456 151.552v0c-2.048-2.048-4.096-4.096-8.192-4.096-6.144 0-10.24 4.096-10.24 10.24 0 2.048 0 4.096 2.048 6.144 4.096 4.096 10.24 4.096 14.336 0 6.144-2.048 6.144-8.192 2.048-12.288 0 0 0 0 0 0s0 0 0 0zM935.936 178.176v0c-2.048-6.144-8.192-8.192-14.336-4.096-4.096 2.048-6.144 8.192-4.096 12.288v0c2.048 4.096 8.192 6.144 14.336 4.096 4.096-2.048 6.144-6.144 4.096-12.288 0 0 0 0 0 0-2.048 0 0 0 0 0zM944.128 208.896c0-4.096-4.096-8.192-10.24-8.192 0 0-2.048 0-2.048 0-6.144 0-8.192 6.144-8.192 12.288v0c0 6.144 6.144 8.192 12.288 8.192 6.144-2.048 10.24-6.144 8.192-12.288 2.048 0 2.048 0 0 0v0zM937.984 229.376c-6.144 0-10.24 4.096-10.24 8.192 0 0 0 0 0 0-2.048 18.432-10.24 34.816-22.528 49.152v0 0c-32.768 36.864-90.112 40.96-126.976 8.192s-40.96-90.112-8.192-126.976c14.336-16.384 36.864-28.672 59.392-30.72 6.144 0 10.24-4.096 10.24-10.24s-4.096-10.24-10.24-10.24v0h-2.048c-10.24 0-20.48 4.096-30.72 8.192 0 0 0 0 0 0h-2.048c0 0 0 0 0 0-8.192 4.096-16.384 8.192-24.576 14.336 0 0-2.048 0-2.048 0v0c0 0 0 0-2.048 2.048-8.192 6.144-14.336 14.336-20.48 22.528v0c0 0 0 0 0 2.048-6.144 8.192-10.24 18.432-12.288 28.672v0c0 0 0 0 0 0-2.048 10.24-4.096 18.432-4.096 28.672 0 0 0 2.048 0 2.048v0 0 0 2.048c0 0 0 0 0 0 0 10.24 2.048 20.48 6.144 30.72 0 0 0 0 0 0v0c0 0 0 0 0 0 4.096 10.24 8.192 18.432 14.336 28.672v0c0 0 0 0 0 0 36.864 49.152 104.448 59.392 153.6 22.528 14.336-10.24 26.624-26.624 34.816-43.008v0 0 0c4.096-10.24 6.144-20.48 8.192-30.72 0 0 0 0 0 0v0c0 0 0 0 0 0s0 0 0-2.048c0 0-4.096-4.096-8.192-4.096 0 0 0 0 0 0z" />
<glyph unicode="&#xe915;" glyph-name="LDF-HT2-41" d="M831.488 772.096h-342.016c-16.384 0-30.72 8.192-36.864 22.528l-12.288 22.528c-8.192 14.336-22.528 22.528-36.864 22.528h-210.944c-14.336 0-24.576-10.24-24.576-24.576 0 0 0 0 0 0v-139.264h55.296v20.48c0 14.336 10.24 24.576 24.576 24.576v0h528.384c14.336 0 24.576-10.24 24.576-24.576v0-20.48h57.344v71.68c-2.048 12.288-12.288 24.576-26.624 24.576zM837.632 415.744c12.288 0 24.576-2.048 34.816-4.096l16.384 215.040c0 12.288-8.192 22.528-20.48 22.528 0 0-2.048 0-2.048 0h-710.656c-12.288 0-20.48-10.24-20.48-20.48 0 0 0-2.048 0-2.048l28.672-378.88c0-10.24 10.24-20.48 20.48-20.48h462.848c2.048 104.448 86.016 188.416 190.464 188.416zM837.632 391.168c-90.112 0-163.84-73.728-163.84-163.84s73.728-163.84 163.84-163.84 163.84 73.728 163.84 163.84-73.728 163.84-163.84 163.84zM917.504 278.528l-81.92-122.88c-4.096-4.096-8.192-8.192-14.336-8.192h-2.048c-4.096 0-10.24 2.048-14.336 6.144l-47.104 51.2c-6.144 8.192-6.144 18.432 0 26.624 8.192 6.144 18.432 6.144 26.624 0l32.768-34.816 67.584 102.4c6.144 8.192 16.384 10.24 26.624 4.096 10.24-4.096 12.288-16.384 6.144-24.576v0 0z" />
<glyph unicode="&#xe916;" glyph-name="LDF-HT1-33" d="M649.216 417.792c-81.92-59.392-192.512-59.392-272.384 0-116.736-53.248-192.512-167.936-192.512-296.96 32.768-20.48 67.584-34.816 102.4-47.104-2.048 40.96 4.096 81.92 18.432 122.88 2.048 6.144 10.24 10.24 16.384 8.192s10.24-10.24 8.192-16.384c-14.336-38.912-18.432-79.872-16.384-120.832v0c65.536-18.432 133.12-26.624 200.704-26.624s135.168 8.192 200.704 26.624v0c2.048 40.96-2.048 81.92-16.384 120.832-2.048 6.144 2.048 14.336 8.192 16.384s14.336-2.048 16.384-8.192v0c14.336-38.912 20.48-79.872 18.432-122.88 36.864 12.288 69.632 28.672 102.4 47.104-4.096 129.024-79.872 243.712-194.56 296.96zM512 462.848c102.4 0 184.32 114.688 184.32 217.088s-81.92 184.32-184.32 184.32-184.32-81.92-184.32-184.32c0-102.4 81.92-217.088 184.32-217.088zM505.856 557.056c-16.384 0-28.672 14.336-28.672 30.72s12.288 28.672 28.672 28.672c16.384 0 28.672-14.336 28.672-30.72s-14.336-28.672-28.672-28.672zM462.848 757.76c14.336 6.144 28.672 8.192 45.056 10.24 28.672 0 53.248-10.24 53.248-45.056 0-16.384-8.192-30.72-20.48-40.96-10.24-6.144-16.384-16.384-16.384-28.672 0-6.144 0-12.288 2.048-18.432h-36.864c-2.048 6.144-2.048 12.288-2.048 18.432 0 18.432 8.192 34.816 22.528 45.056 8.192 6.144 12.288 14.336 12.288 24.576s-6.144 14.336-20.48 14.336c-12.288-2.048-26.624-4.096-38.912-8.192 0-2.048 0 28.672 0 28.672z" />
<glyph unicode="&#xe917;" glyph-name="LDF-HT1-32" d="M649.216 411.648v0l77.824-131.072h-83.968l-131.072-219.136 63.488 307.2v73.728c28.672 16.384 53.248 40.96 71.68 69.632 38.912 8.192 75.776 22.528 110.592 43.008-143.36 126.976-12.288 278.528-184.32 278.528 0 14.336-24.576 36.864-63.488 36.864-233.472 0-102.4-210.944-241.664-315.392 32.768-20.48 71.68-36.864 110.592-43.008 18.432-28.672 40.96-51.2 71.68-69.632v-73.728l61.44-307.2-131.072 219.136h-83.968l77.824 131.072c-114.688-53.248-190.464-169.984-190.464-296.96 32.768-20.48 67.584-34.816 102.4-47.104-2.048 40.96 4.096 81.92 18.432 122.88 2.048 6.144 10.24 10.24 16.384 8.192s10.24-10.24 8.192-16.384c-14.336-38.912-18.432-79.872-16.384-120.832v0c65.536-18.432 133.12-28.672 200.704-26.624 67.584 0 135.168 8.192 200.704 26.624v0c2.048 40.96-2.048 81.92-16.384 120.832-2.048 6.144 2.048 14.336 8.192 16.384s14.336-2.048 16.384-8.192c14.336-38.912 20.48-79.872 18.432-122.88 36.864 12.288 69.632 28.672 102.4 47.104-4.096 126.976-79.872 243.712-194.56 296.96z" />
<glyph unicode="&#xe918;" glyph-name="LDF-HT1-31" d="M649.216 411.648v0l-83.968-163.84-28.672 67.584c10.24 6.144 16.384 16.384 18.432 26.624l2.048 22.528c2.048 16.384-10.24 30.72-26.624 32.768-2.048 0-2.048 0-4.096 0h-28.672c-16.384 0-28.672-12.288-30.72-28.672 0-2.048 0-2.048 0-4.096l2.048-22.528c2.048-12.288 8.192-22.528 18.432-26.624l-28.672-65.536-81.92 161.792c-116.736-53.248-192.512-169.984-192.512-296.96 32.768-20.48 67.584-34.816 102.4-47.104-2.048 40.96 4.096 81.92 18.432 122.88 2.048 6.144 10.24 10.24 16.384 8.192s10.24-10.24 8.192-16.384c-14.336-38.912-18.432-79.872-16.384-120.832v0c65.536-18.432 133.12-28.672 200.704-26.624 67.584 0 135.168 8.192 200.704 26.624v0c2.048 40.96-2.048 81.92-16.384 120.832-2.048 6.144 2.048 14.336 8.192 16.384s14.336-2.048 16.384-8.192c14.336-38.912 20.48-79.872 18.432-122.88 36.864 12.288 69.632 28.672 102.4 47.104-4.096 126.976-79.872 243.712-194.56 296.96zM368.64 563.2c28.672-59.392 81.92-106.496 143.36-106.496s116.736 47.104 143.36 106.496c18.432 0 36.864 20.48 43.008 49.152s4.096 59.392-20.48 63.488c6.144 104.448-55.296 194.56-167.936 194.56-40.96 0-49.152-12.288-49.152-28.672-112.64-2.048-129.024-75.776-120.832-165.888-22.528-4.096-24.576-34.816-18.432-63.488 6.144-30.72 26.624-53.248 47.104-49.152z" />
<glyph unicode="&#xe919;" glyph-name="LDF-A-73" d="M512 462.848c102.4 0 184.32 114.688 184.32 217.088s-81.92 184.32-184.32 184.32-184.32-81.92-184.32-184.32c0-102.4 81.92-217.088 184.32-217.088zM649.216 417.792c-81.92-59.392-192.512-59.392-272.384 0-116.736-53.248-192.512-167.936-192.512-296.96 32.768-20.48 67.584-34.816 102.4-47.104-2.048 40.96 4.096 81.92 18.432 122.88 2.048 6.144 10.24 10.24 16.384 8.192s10.24-10.24 8.192-16.384c-14.336-38.912-18.432-79.872-16.384-120.832v0c65.536-18.432 133.12-26.624 200.704-26.624s135.168 8.192 200.704 26.624v0c2.048 40.96-2.048 81.92-16.384 120.832-2.048 6.144 2.048 14.336 8.192 16.384s14.336-2.048 16.384-8.192v0c14.336-38.912 20.48-79.872 18.432-122.88 36.864 12.288 69.632 28.672 102.4 47.104-4.096 129.024-79.872 243.712-194.56 296.96z" />
<glyph unicode="&#xe91a;" glyph-name="LDF-A-72" d="M598.016 710.656c0-58.816-47.68-106.496-106.496-106.496s-106.496 47.68-106.496 106.496c0 58.816 47.68 106.496 106.496 106.496s106.496-47.68 106.496-106.496zM821.248 448.512c0-37.326-30.258-67.584-67.584-67.584s-67.584 30.258-67.584 67.584c0 37.326 30.258 67.584 67.584 67.584s67.584-30.258 67.584-67.584zM845.824 710.656c0-50.899-41.261-92.16-92.16-92.16s-92.16 41.261-92.16 92.16c0 50.899 41.261 92.16 92.16 92.16s92.16-41.261 92.16-92.16zM571.392 448.512c0-44.112-35.76-79.872-79.872-79.872s-79.872 35.76-79.872 79.872c0 44.112 35.76 79.872 79.872 79.872s79.872-35.76 79.872-79.872zM593.92 186.368c0-56.554-45.846-102.4-102.4-102.4s-102.4 45.846-102.4 102.4c0 56.554 45.846 102.4 102.4 102.4s102.4-45.846 102.4-102.4zM276.48 448.512c0-27.146-22.006-49.152-49.152-49.152s-49.152 22.006-49.152 49.152c0 27.146 22.006 49.152 49.152 49.152s49.152-22.006 49.152-49.152z" />
<glyph unicode="&#xe91b;" glyph-name="LDF-A-71" d="M512 817.152c-202.752 0-366.592-163.84-366.592-366.592s163.84-366.592 366.592-366.592 366.592 163.84 366.592 366.592v0c0 202.752-163.84 366.592-366.592 366.592zM512 647.168c24.576 0 47.104-20.48 47.104-47.104 0-24.576-20.48-47.104-47.104-47.104-24.576 0-47.104 20.48-47.104 47.104s22.528 47.104 47.104 47.104v0zM581.632 253.952h-139.264v47.104h34.816v161.792h-34.816v47.104h104.448v-208.896h34.816v-47.104z" />
<glyph unicode="&#xe91c;" glyph-name="equal, match, parallel, compare" d="M256 384h512v-128h-512v128zM256 640v-128h512v128h-512z" />
<glyph unicode="&#xe91d;" glyph-name="arrow-right" d="M0 448c0-282.752 229.248-512 512-512 282.784 0 512 229.248 512 512 0 282.784-229.216 512-512 512-282.752 0-512-229.216-512-512zM768 448l-256-256v192h-256v128h256v192l256-256z" />
<glyph unicode="&#xe91e;" glyph-name="alert" d="M990.894 126.106l-427.213 696.422c-28.436 46.408-74.936 45.763-103.373-0.655l-427.203-695.47c-28.436-46.438-7.199-82.299 47.196-82.299h863.375c54.415 0 75.653 35.625 47.217 82.002zM511.642 668.385c27.361 0 48.527-30.228 47.124-67.154l-8.663-222.577c-1.403-36.905-18.76-67.123-38.564-67.123s-37.192 30.228-38.595 67.123l-8.561 222.577c-1.403 36.925 19.835 67.154 47.258 67.154zM511.642 143.862c-34.519 0-58.204 25.242-57.487 59.73 0 35.236 23.747 59.73 57.487 59.73 35.174 0 57.416-24.494 58.173-59.73 0-34.488-22.999-59.73-58.173-59.73z" />
<glyph unicode="&#xe91f;" glyph-name="arrow-right-circle" d="M512 942.080c-271.462 0-491.52-220.058-491.52-491.52s220.058-491.52 491.52-491.52 491.52 220.058 491.52 491.52c0 271.462-220.068 491.52-491.52 491.52zM585.871 211.456c-13.701-13.67-31.908-20.521-50.227-20.521-18.115 0-36.372 6.666-50.432 20.060-27.648 28.989-27.648 73.001-0.922 101.089l67.103 67.154h-270.152c-39.967 0-71.311 31.324-71.311 71.311s31.345 71.332 71.311 71.332h270.162l-66.642 66.673c-27.187 27.136-27.392 72.284-0.461 100.628 28.989 27.546 73.001 27.628 101.069 0.973l0.512-0.492 239.073-239.124-239.084-239.084z" />
<glyph unicode="&#xe920;" glyph-name="check" d="M344.419 157.033c11.375-9.474 24.64-13.264 37.906-13.264 15.156 0 30.322 5.682 41.696 17.057l498.426 504.119c22.738 22.738 22.738 60.644 0 83.382s-60.644 22.738-83.382 0l-460.534-466.204-197.087 166.776c-24.64 20.849-62.546 17.057-83.382-7.583s-17.057-62.546 7.583-83.382l238.783-200.89z" />
<glyph unicode="&#xe921;" glyph-name="close" d="M602.496 450.56l270.212 270.212c24.222 25.493 24.222 65.008 0 90.496-25.493 24.222-66.273 24.222-90.496 0l-270.212-270.212-270.212 270.212c-25.493 24.222-65.008 24.222-90.496 0-24.222-25.493-24.222-66.273 0-90.496l270.212-270.212-270.212-270.212c-24.222-25.493-24.222-65.008 0-90.496 25.493-24.222 66.273-24.222 90.496 0l270.212 270.212 270.212-270.212c25.493-24.222 65.008-24.222 90.496 0 24.222 25.493 24.222 66.273 0 90.496l-270.212 270.212z" />
<glyph unicode="&#xe922;" glyph-name="close-box" d="M874.568 962.56h-725.135c-82.186 0-149.432-67.246-149.432-149.432v-725.135c0-82.186 67.246-149.432 149.432-149.432h725.135c82.186 0 149.432 67.246 149.432 149.432v725.135c0 82.186-67.246 149.432-149.432 149.432zM775.229 253.379c17.674-17.674 17.674-47.432 0-66.038-18.606-17.674-47.432-17.674-66.038 0l-197.192 197.181-197.192-197.192c-17.674-17.674-47.432-17.674-66.038 0-17.674 18.606-17.674 47.432 0 66.038l197.192 197.192-197.192 197.181c-17.674 17.674-17.674 47.442 0 66.038 18.606 17.674 47.432 17.674 66.038 0l197.192-197.181 197.181 197.192c17.674 17.674 47.442 17.674 66.038 0 17.674-18.606 17.674-47.432 0-66.038l-197.181-197.192 197.192-197.181z" />
<glyph unicode="&#xe923;" glyph-name="info-circle" d="M512-61.44c282.788 0 512 229.233 512 512s-229.212 512-512 512-512-229.233-512-512 229.212-512 512-512zM540.447 783.36c47.135 0 85.33-38.205 85.33-85.33s-38.195-85.33-85.33-85.33-85.33 38.205-85.33 85.33 38.185 85.33 85.33 85.33zM512 572.867c85.33 0 106.025-50.35 96.471-112.456l-39.588-257.321c0 0 28.447 0 85.33 28.447 0 0-28.447-113.777-142.223-113.777-85.33 0-106.025 50.35-96.471 112.456l39.588 257.321c0 0-28.447 0-85.33-28.447 0 0 28.447 113.777 142.223 113.777z" />
<glyph unicode="&#xe924;" glyph-name="plus-circle" d="M512 962.56c-283.177 0-512-228.823-512-512s228.823-512 512-512 512 228.823 512 512v0c0 283.177-228.823 512-512 512zM770.867 381.911c0-5.724-2.857-8.581-8.581-8.581h-164.475c-5.724 0-8.581-2.857-8.581-8.581v-164.475c0-5.724-2.857-8.581-8.581-8.581h-134.441c-5.724 0-8.581 2.857-8.581 8.581v164.475c0 5.724-2.857 8.581-8.581 8.581h-164.465c-5.724 0-8.581 2.857-8.581 8.581v134.441c0 5.724 2.857 8.581 8.581 8.581h161.608c5.724 0 8.581 2.857 8.581 8.581v164.465c0 5.724 2.857 8.581 8.581 8.581h134.431c5.724 0 8.581-2.857 8.581-8.581v-161.608c0-5.724 2.857-8.581 8.581-8.581h164.475c5.724 0 8.581-2.857 8.581-8.581l2.867-137.298z" />
<glyph unicode="&#xe925;" glyph-name="LDF-PP-83" d="M202.499 637.091c0.744-0.234 1.518-0.355 2.298-0.36 3.357 0.006 6.323 2.189 7.328 5.392 8.534 25.691 23.128 48.95 42.547 67.811 17.029 17.358 37.512 30.947 60.125 39.891 3.91 1.645 5.746 6.147 4.101 10.058-1.566 3.723-5.749 5.597-9.57 4.286-24.63-9.71-46.95-24.483-65.515-43.36-21.166-20.622-37.061-46.034-46.344-74.090-1.27-4.046 0.981-8.357 5.027-9.627 0.002-0.002 0.002-0.002 0.003-0.002zM269.656 692.906c-19.858-23.016-17.296-57.771 5.718-77.627 20.658-17.822 51.253-17.822 71.91 0 19.858 23.016 17.296 57.771-5.718 77.627-20.658 17.822-51.253 17.822-71.91 0zM320.437 150.685c-25.691 8.534-48.95 23.128-67.811 42.547-17.358 17.030-30.947 37.512-39.891 60.125-1.645 3.91-6.147 5.746-10.058 4.101-3.723-1.566-5.597-5.749-4.286-9.57 9.71-24.63 24.483-46.95 43.36-65.515 20.622-21.166 46.034-37.061 74.090-46.344 0.744-0.234 1.518-0.355 2.298-0.36 4.242-0.013 7.69 3.414 7.704 7.656 0.010 3.374-2.184 6.36-5.408 7.36h0.003zM347.283 285.845c-23.016 19.858-57.771 17.296-77.627-5.718-17.822-20.658-17.822-51.253 0-71.91 23.016-19.858 57.771-17.296 77.627 5.718 17.822 20.658 17.822 51.253 0 71.91zM821.501 264.029c-4.045 1.245-8.339-1-9.626-5.032-8.534-25.691-23.128-48.95-42.547-67.811-17.030-17.358-37.512-30.947-60.125-39.891-4.013-1.376-6.149-5.744-4.774-9.755 1.376-4.013 5.744-6.149 9.755-4.774 0.165 0.056 0.326 0.118 0.486 0.186 24.63 9.71 46.95 24.483 65.515 43.36 21.166 20.622 37.061 46.034 46.344 74.090 1.27 4.046-0.981 8.357-5.027 9.627 0 0 0 0.002-0.002 0.002zM751.586 283.093c21.436-21.436 22.666-54.961 2.748-74.879s-53.443-18.688-74.879 2.748c-21.436 21.436-22.666 54.961-2.748 74.879s53.443 18.688 74.879-2.748zM703.563 750.435c25.691-8.534 48.95-23.128 67.811-42.547 17.358-17.029 30.947-37.512 39.891-60.125 1.645-3.91 6.147-5.746 10.058-4.101 3.723 1.566 5.597 5.749 4.286 9.57-9.71 24.63-24.483 46.95-43.36 65.515-20.622 21.166-46.034 37.061-74.090 46.344-4.034 1.314-8.368-0.89-9.682-4.923s0.89-8.368 4.923-9.682c0.054-0.018 0.109-0.035 0.165-0.051h-0.003zM676.717 615.275c19.861-23.013 54.616-25.568 77.629-5.707s25.568 54.616 5.707 77.629c-19.861 23.013-54.616 25.568-77.629 5.707-1.019-0.88-2.006-1.797-2.958-2.749-21.395-19.938-22.626-53.429-2.749-74.88zM544.904 300.416c-3.568 13.155 0.13 27.214 9.709 36.91 11.853 11.87 30.314 14.032 44.587 5.218 8.491-5.141 14.653-13.379 17.187-22.976l14.848-55.41c27.058 17.181 49.99 40.12 67.165 67.181l-55.406 14.846c-20.058 5.117-32.192 25.501-27.128 45.573 1.65 6.126 4.88 11.712 9.37 16.195 9.698 9.578 23.755 13.275 36.91 9.709l63.979-17.142c0.411-0.11 0.763-0.32 1.168-0.44 7.752 33.21 7.752 67.758 0 100.968-0.405-0.123-0.758-0.331-1.17-0.442l-63.979-17.142c-13.155-3.566-27.214 0.131-36.912 9.709-11.867 11.851-14.027 30.307-5.218 44.579 5.141 8.491 13.379 14.654 22.978 17.189l55.408 14.846c-17.179 27.059-40.118 49.997-67.179 67.173l-14.846-55.406c-5.117-20.058-25.501-32.192-45.573-27.128-6.126 1.65-11.71 4.882-16.195 9.37-9.578 9.698-13.275 23.755-9.709 36.91l17.144 63.979c0.11 0.411 0.32 0.763 0.438 1.168-33.21 7.752-67.758 7.752-100.968 0 0.123-0.405 0.331-0.76 0.442-1.171l17.142-63.979c3.568-13.155-0.13-27.214-9.709-36.912-11.851-11.867-30.307-14.027-44.579-5.218-8.491 5.141-14.653 13.379-17.187 22.978l-14.848 55.408c-27.059-17.179-49.995-40.115-67.173-67.176l55.406-14.848c20.058-5.117 32.192-25.501 27.128-45.573-1.65-6.126-4.882-11.71-9.37-16.194-9.696-9.579-23.755-13.277-36.91-9.71l-63.979 17.144c-0.411 0.11-0.763 0.32-1.168 0.438-7.75-33.21-7.75-67.758 0-100.968 0.405 0.123 0.76 0.331 1.171 0.442l63.979 17.144c13.155 3.566 27.214-0.131 36.912-9.71 11.87-11.854 14.029-30.315 5.214-44.587-5.142-8.491-13.381-14.653-22.978-17.187l-55.408-14.848c17.181-27.058 40.12-49.99 67.181-67.165l14.846 55.408c5.118 20.058 25.502 32.19 45.573 27.126 6.126-1.65 11.71-4.88 16.195-9.368 9.578-9.698 13.275-23.757 9.709-36.912l-17.144-63.979c-0.11-0.411-0.32-0.763-0.438-1.168 33.21-7.752 67.758-7.752 100.968 0-0.123 0.405-0.331 0.762-0.442 1.173l-17.142 63.976zM301.419 513.843l63.979-17.142c12.283-3.856 25.366 2.974 29.222 15.258s-2.974 25.366-15.258 29.222c-0.629 0.197-1.266 0.368-1.91 0.512l-52.43 14.050-20.085 32.142c-15.992 1.811-30.888 9.024-42.227 20.446-2.050 2.075-3.973 4.27-5.76 6.576-2.499-5.678-4.52-11.555-6.040-17.571l-0.024-0.093-0.211-0.941 0.022-0.010c-1.531-7.907 0.038-16.099 4.382-22.88l28.517-45.635c2.206-3.536 5.064-6.622 8.422-9.091 2.75-2.27 5.955-3.922 9.4-4.843zM374.677 657.613l32.136-20.080 14.050-52.432c2.805-12.565 15.264-20.477 27.829-17.674 12.565 2.805 20.477 15.264 17.674 27.829-0.142 0.64-0.314 1.275-0.509 1.901l-17.032 63.566c-0.213 0.81-0.464 1.61-0.75 2.4l-0.221 0.605c-0.246 0.64-0.522 1.261-0.814 1.883l-0.077 0.16c-2.667 5.493-6.842 10.115-12.037 13.326l-45.635 28.517c-7.81 5.080-17.501 6.341-26.35 3.43-5.21-1.472-10.315-3.293-15.28-5.451 2.304-1.784 4.499-3.704 6.573-5.75 11.421-11.341 18.634-26.237 20.445-42.23zM449.65 333.44c-12.757 3.086-25.613-4.704-28.782-17.44l-14.050-52.432-32.142-20.085c-1.811-15.992-9.024-30.888-20.446-42.227-2.075-2.050-4.27-3.973-6.576-5.76 5.678-2.499 11.557-4.52 17.571-6.040l0.094-0.024 0.939-0.211 0.010 0.022c7.907-1.531 16.099 0.038 22.88 4.382l45.637 28.517c3.536 2.206 6.621 5.064 9.090 8.422 2.272 2.747 3.926 5.95 4.851 9.394l17.144 63.979c3.627 12.621-3.619 25.802-16.219 29.502zM254.938 327.84c-5.080-7.81-6.341-17.501-3.43-26.35 1.472-5.21 3.293-10.315 5.451-15.28 1.784 2.304 3.704 4.499 5.75 6.573 11.342 11.424 26.243 18.637 42.24 20.448l20.080 32.134 52.432 14.050c12.563 2.814 20.466 15.28 17.651 27.842s-15.28 20.466-27.842 17.651c-0.629-0.141-1.251-0.307-1.866-0.499l-63.566-17.034c-0.808-0.213-1.608-0.464-2.4-0.75l-0.605-0.221c-0.64-0.246-1.261-0.522-1.883-0.814l-0.16-0.077c-5.493-2.667-10.115-6.843-13.326-12.037l-28.526-45.635zM768.914 327.699l-28.517 45.637c-2.206 3.536-5.066 6.621-8.422 9.091-2.747 2.27-5.952 3.925-9.394 4.85l-63.979 17.144c-12.283 3.856-25.366-2.974-29.222-15.258s2.974-25.366 15.258-29.222c0.629-0.197 1.267-0.368 1.91-0.512l52.43-14.050 20.085-32.144c15.992-1.811 30.888-9.024 42.227-20.446 2.050-2.074 3.974-4.27 5.76-6.576 2.499 5.678 4.52 11.557 6.040 17.571l0.024 0.094 0.211 0.939-0.022 0.010c1.526 7.904-0.045 16.094-4.389 22.872zM649.323 243.507l-32.136 20.082-14.050 52.43c-2.805 12.565-15.264 20.477-27.829 17.672s-20.477-15.264-17.672-27.829c0.142-0.64 0.314-1.275 0.509-1.901l17.032-63.566c0.213-0.808 0.464-1.61 0.75-2.408l0.221-0.605c0.246-0.64 0.522-1.259 0.814-1.883l0.077-0.16c2.669-5.493 6.843-10.115 12.037-13.326l45.643-28.515c7.808-5.080 17.501-6.342 26.35-3.432 5.21 1.472 10.315 3.293 15.28 5.451-2.304 1.784-4.499 3.704-6.573 5.75-11.427 11.342-18.642 26.243-20.454 42.24zM574.35 567.68c12.757-3.086 25.613 4.704 28.782 17.44l14.050 52.43 32.142 20.085c1.811 15.992 9.024 30.888 20.446 42.227 2.074 2.050 4.27 3.974 6.576 5.76-5.678 2.499-11.557 4.52-17.571 6.040l-0.094 0.024-0.939 0.211-0.010-0.022c-7.904 1.53-16.093-0.040-22.872-4.382l-45.637-28.517c-3.536-2.206-6.621-5.064-9.090-8.422-2.272-2.747-3.926-5.95-4.851-9.394l-17.144-63.978c-3.627-12.619 3.614-25.798 16.211-29.502zM772.493 599.622c-1.472 5.211-3.293 10.317-5.451 15.282-1.782-2.304-3.704-4.499-5.75-6.573-11.342-11.426-26.243-18.638-42.24-20.448l-20.080-32.136-52.432-14.048c-12.563-2.814-20.466-15.28-17.651-27.842 2.814-12.563 15.28-20.466 27.842-17.651 0.629 0.141 1.251 0.307 1.866 0.499l63.566 17.032c0.808 0.213 1.61 0.464 2.408 0.75l0.605 0.222c0.64 0.246 1.261 0.52 1.883 0.814l0.16 0.075c5.493 2.669 10.115 6.843 13.326 12.037l28.517 45.635c5.080 7.808 6.342 17.501 3.432 26.35z" />
<glyph unicode="&#xe926;" glyph-name="LDF-PP-82" d="M737.28 481.28c-70.693 0-128-57.307-128-128s57.307-128 128-128 128 57.307 128 128-57.307 128-128 128c0 0 0 0 0 0zM719.36 414.498h35.84v-48.418h-35.84v48.418zM664.843 386.677h35.84v-20.597h-35.84v20.597zM700.683 292.067h-35.84v48.413h35.84v-48.413zM755.198 292.067h-35.838v48.413h35.84l-0.002-48.413zM809.714 292.067h-35.84v27.821h35.84v-27.821zM821.874 349.435h-169.186v7.685h169.187l-0.002-7.685zM441.76 665.005c13.642-0.053 26.586-6.040 35.461-16.4h201.47c8.613 0 15.595-6.982 15.595-15.595v0-9.424h19.986c5.434-0.037 10.779-1.362 15.602-3.864v50.298c0 8.616-6.986 15.602-15.602 15.602v0h-216.624c-9.837 0-18.933 5.23-23.88 13.733l-8.122 13.955c-4.95 8.504-14.048 13.733-23.886 13.731h-132.032c-8.616 0-15.602-6.986-15.602-15.602v-50.298c4.822 2.502 10.168 3.827 15.602 3.864h132.032zM441.76 583.768c13.645-0.053 26.592-6.043 35.467-16.408h201.464c8.613 0 15.595-6.982 15.595-15.595v0-9.424h19.986c5.434-0.035 10.779-1.36 15.602-3.864v50.307c0 8.616-6.986 15.602-15.602 15.602v0h-216.624c-9.837 0-18.931 5.23-23.88 13.731l-8.122 13.955c-4.947 8.502-14.043 13.733-23.88 13.733h-132.038c-8.616 0-15.602-6.986-15.602-15.602v-50.299c4.822 2.502 10.168 3.827 15.602 3.864h132.032zM590.080 353.28c0.011 31.771 10.37 62.675 29.507 88.035h-332.197c-7.454 0-13.496-6.042-13.498-13.494 0-0.338 0.013-0.674 0.038-1.011l18.069-240.25c0.531-7.040 6.398-12.48 13.458-12.48h413.093c7.061 0 12.928 5.44 13.459 12.48l1.48 19.707c-79.722 2.096-143.293 67.264-143.41 147.013zM329.715 470.536c-0.002 8.613 6.981 15.595 15.594 15.597v0h329.005c17.414 8.283 36.299 13.032 55.56 13.973v7.442c0 8.616-6.986 15.602-15.602 15.602v0h-216.624c-9.837 0-18.933 5.23-23.88 13.733l-8.122 13.954c-4.947 8.502-14.043 13.733-23.88 13.733h-132.038c-8.616 0-15.602-6.986-15.602-15.602v-88.45h35.589v10.019z" />
<glyph unicode="&#xe927;" glyph-name="LDF-PP-81" d="M376.32 570.88h35.84v-35.84h-35.84v35.84zM376.32 386.56h35.84v-35.84h-35.84v35.84zM376.32 478.72h35.84v-35.84h-35.84v35.84zM711.68 390.4v282.88c0 14.139-11.461 25.6-25.6 25.6h-47.36v-46.68c-0.016-15.323-12.435-27.742-27.758-27.76h-197.92c-15.323 0.018-27.742 12.437-27.758 27.76v46.68h-47.363c-14.139 0-25.6-11.461-25.6-25.6v0-404.48c0-14.139 11.461-25.6 25.6-25.6h226.56c0.088 81.259 65.941 147.112 147.2 147.2zM450.56 565.749h204.8v-25.6h-204.8v25.6zM450.56 473.597h204.8v-25.6h-204.8v25.6zM419.84 343.037h-51.2v51.2h51.2v-51.2zM419.84 435.197h-51.2v51.2h51.2v-51.2zM419.84 527.357h-51.2v51.203h51.2v-51.203zM573.44 355.837h-122.88v25.6h122.88v-25.6zM711.688 320.358c-42.614-0.005-77.157-34.554-77.152-77.168s34.554-77.157 77.168-77.152c42.611 0.005 77.154 34.55 77.152 77.162-0.056 42.594-34.574 77.107-77.168 77.158zM742.97 267.718c5.982 0 10.832-4.85 10.832-10.832s-4.85-10.832-10.832-10.832-10.832 4.85-10.832 10.832v0c-0.002 5.982 4.848 10.832 10.832 10.832-0.002 0.002 0 0.002 0 0v0zM680.392 267.718c5.982 0.002 10.832-4.848 10.834-10.83s-4.848-10.832-10.83-10.834-10.832 4.848-10.834 10.83c0 0 0 0.002 0 0.002-0.002 5.982 4.848 10.832 10.83 10.832v0zM755.317 204.456c-21.387-24.048-58.219-26.205-82.269-4.818-1.763 1.568-3.429 3.242-4.989 5.011-1.888 2.099-1.717 5.331 0.382 7.219s5.331 1.717 7.219-0.382c0.021-0.024 0.042-0.046 0.062-0.070 17.562-19.902 47.931-21.8 67.834-4.238 1.446 1.275 2.814 2.637 4.096 4.078 1.878 2.117 5.117 2.309 7.234 0.43s2.309-5.117 0.43-7.234v0.003zM711.68 371.2c-70.693 0-128-57.307-128-128s57.307-128 128-128 128 57.307 128 128-57.307 128-128 128zM711.68 155.792c-48.274-0.005-87.413 39.125-87.418 87.398s39.125 87.413 87.398 87.418 87.413-39.125 87.418-87.398c0-0.003 0-0.006 0-0.010-0.062-48.242-39.149-87.336-87.39-87.408h-0.008zM413.038 643.642h197.92c4.722 0.014 8.544 3.837 8.558 8.558v71.4c-0.014 4.722-3.837 8.544-8.558 8.558h-45.198c1.187 19.706-9.398 38.246-26.971 47.242-26.25 14.499-59.283 4.973-73.781-21.277-4.392-7.952-6.718-16.878-6.768-25.963v0h-45.202c-4.722-0.014-8.544-3.837-8.558-8.558v-71.4c0.013-4.722 3.837-8.546 8.558-8.56zM512 753.666c11.877 0 21.504-9.627 21.504-21.504s-9.627-21.504-21.504-21.504c-11.875 0-21.502 9.627-21.504 21.502-0.002 11.877 9.626 21.504 21.504 21.506-0.002 0 0 0 0 0z" />
<glyph unicode="&#xe928;" glyph-name="LDF-PP-84" d="M413.040 643.072h197.92c4.722 0.014 8.544 3.837 8.558 8.558v71.4c-0.013 4.722-3.837 8.546-8.558 8.56h-45.2c1.186 19.706-9.398 38.246-26.971 47.243-26.25 14.499-59.283 4.973-73.781-21.278-4.392-7.952-6.718-16.88-6.768-25.963h-45.2c-4.722-0.014-8.546-3.838-8.558-8.56v-71.4c0.013-4.722 3.837-8.546 8.558-8.56zM512 753.096c11.877 0 21.504-9.627 21.504-21.504s-9.627-21.504-21.504-21.504-21.504 9.627-21.504 21.504v0c0 11.877 9.627 21.504 21.504 21.504zM607.373 398.141c27.402 27.552 64.688 42.995 103.546 42.89 0.258 0 0.509-0.035 0.765-0.037v231.718c0 14.139-11.461 25.6-25.6 25.6h-47.363v-46.682c-0.019-15.323-12.437-27.741-27.76-27.758h-197.92c-15.323 0.016-27.742 12.435-27.76 27.758v46.682h-47.36c-14.139 0-25.6-11.461-25.6-25.6v0-404.48c0-14.139 11.461-25.6 25.6-25.6h236.232c-20.459 53.859-7.461 114.71 33.221 155.509zM450.56 565.186h204.8v-25.6h-204.8v25.6zM450.56 473.026h204.8v-25.6h-204.8v25.6zM425.344 387.68l-31.381-47.184c-1.206-1.789-3.157-2.936-5.307-3.118-0.202-0.018-0.405-0.027-0.603-0.027-1.947 0-3.81 0.797-5.154 2.205l-19.003 19.896c-2.718 2.846-2.614 7.357 0.232 10.075s7.357 2.614 10.075-0.232v0l12.886-13.493 26.434 39.84c2.155 3.294 6.573 4.218 9.867 2.062s4.218-6.573 2.062-9.867c-0.035-0.054-0.072-0.109-0.109-0.162v0.005zM425.344 479.84l-31.381-47.184c-1.206-1.789-3.157-2.936-5.307-3.118-0.202-0.018-0.405-0.027-0.603-0.027-1.947 0-3.81 0.797-5.154 2.205l-19.003 19.896c-2.718 2.846-2.614 7.357 0.232 10.075s7.357 2.614 10.075-0.232v0l12.886-13.493 26.434 39.84c2.155 3.294 6.573 4.219 9.867 2.064s4.219-6.573 2.064-9.867c-0.035-0.054-0.072-0.109-0.11-0.163v0.005zM425.344 572l-31.381-47.184c-1.206-1.789-3.157-2.936-5.307-3.118-0.202-0.018-0.405-0.026-0.603-0.026-1.947-0.002-3.81 0.795-5.154 2.203l-19.003 19.896c-2.718 2.846-2.614 7.357 0.232 10.075s7.357 2.614 10.075-0.232v0l12.886-13.493 26.434 39.84c2.155 3.294 6.573 4.219 9.867 2.064s4.219-6.573 2.064-9.867c-0.035-0.054-0.072-0.109-0.11-0.163v0.005zM552.96 355.262h-102.4v25.6h102.4v-25.6zM659.694 234.114h17.33v43.326h25.994v-43.323h60.653v103.973h-103.976v-103.976zM720.347 320.76h25.994v-25.994h-25.994v25.994zM720.347 277.437h25.994v-25.994h-25.994v25.994zM677.024 320.76h25.994v-25.994h-25.994v25.994zM763.68 355.008h-103.984c-2.12 0.003-3.842-1.714-3.845-3.835s1.714-3.842 3.835-3.845c0.003 0 0.006 0 0.011 0h103.984c2.12 0.003 3.838 1.725 3.835 3.845-0.005 2.117-1.72 3.832-3.837 3.835zM869.491 181.886l-50.992 44.787c37.523 59.429 19.766 138.024-39.662 175.547s-138.024 19.766-175.547-39.662-19.766-138.024 39.662-175.547c41.506-26.208 94.384-26.206 135.89 0.003l44.786-50.992c11.501-13.402 31.688-14.941 45.090-3.44 0.709 0.608 1.389 1.246 2.042 1.914l0.259 0.259c12.629 12.342 12.861 32.587 0.517 45.216-0.653 0.667-1.334 1.307-2.043 1.915zM778.744 226.77c-37.459-37.459-98.192-37.461-135.651-0.002s-37.461 98.192-0.002 135.651 98.192 37.461 135.651 0.002c0 0 0.002-0.002 0.002-0.002 37.459-36.962 37.861-97.291 0.899-134.75-0.298-0.302-0.597-0.602-0.899-0.899z" />
<glyph unicode="&#xe929;" glyph-name="arrow-down" d="M294.72 416l-217.28 271.68h869.12l-434.56-543.36-217.28 271.68z" />
<glyph unicode="&#xe92a;" glyph-name="arrow-up" d="M729.28 480l217.28-271.68h-869.12l434.56 543.36 217.28-271.68z" />
<glyph unicode="&#xe92b;" glyph-name="danger" d="M150.016 98.816c-96.436 93.233-156.308 223.762-156.308 368.276 0 282.77 229.23 512 512 512 144.514 0 275.043-59.872 368.137-156.164l0.138-0.144c88.925-91.979 143.724-217.436 143.724-355.692 0-282.77-229.23-512-512-512-138.256 0-263.713 54.799-355.836 143.863l0.144-0.138zM460.8 716.8v-307.2h102.4v307.2h-102.4zM460.8 307.2v-102.4h102.4v102.4h-102.4z" />
<glyph unicode="&#xe92c;" glyph-name="home" d="M1024 369.556l-512 397.426-512-397.428v162.038l512 397.426 512-397.428zM896 384v-384h-256v256h-256v-256h-256v384l384 288z" />
<glyph unicode="&#xe92f;" glyph-name="folder-alert" d="M223.232 693.76c0 14.336 10.24 24.576 24.576 24.576v0h528.384c14.336 0 24.576-10.24 24.576-24.576v0-20.48h57.344v71.68c0 14.336-10.24 24.576-24.576 24.576h-344.064c-16.384 0-30.72 8.192-36.864 22.528l-12.288 22.528c-8.192 14.336-22.528 22.528-36.864 22.528h-210.944c-14.336 0-24.576-10.24-24.576-24.576v0-139.264h55.296v20.48zM837.632 413.184c12.288 0 24.576-2.048 34.816-4.096l16.384 215.040c0 12.288-8.192 22.528-20.48 22.528h-712.704c-12.288 0-20.48-10.24-20.48-20.48v-2.048l28.672-378.88c0-10.24 10.24-20.48 20.48-20.48h462.848c2.048 104.448 86.016 188.416 190.464 188.416zM837.632 388.608c-90.112 0-163.84-73.728-163.84-163.84s73.728-163.84 163.84-163.84c90.112 0 163.84 73.728 163.84 163.84s-73.728 163.84-163.84 163.84zM821.248 316.928c0 8.192 6.144 14.336 14.336 14.336h4.096c8.192 0 14.336-6.144 14.336-14.336v-120.832c0-8.192-6.144-14.336-14.336-14.336h-6.144c-8.192 0-14.336 6.144-14.336 14.336v120.832zM837.632 118.272c-14.336 0-24.576 10.24-24.576 24.576s10.24 24.576 24.576 24.576c14.336 0 24.576-10.24 24.576-24.576s-10.24-24.576-24.576-24.576z" />
<glyph unicode="&#xe930;" glyph-name="folder-cancel" d="M223.232 693.76c0 14.336 10.24 24.576 24.576 24.576v0h528.384c14.336 0 24.576-10.24 24.576-24.576v0-20.48h57.344v71.68c0 14.336-10.24 24.576-24.576 24.576h-344.064c-16.384 0-30.72 8.192-36.864 22.528l-12.288 22.528c-8.192 14.336-22.528 22.528-36.864 22.528h-210.944c-14.336 0-24.576-10.24-24.576-24.576v0-139.264h55.296c0 0 0 20.48 0 20.48zM837.632 413.184c12.288 0 24.576-2.048 34.816-4.096l16.384 215.040c0 12.288-8.192 22.528-20.48 22.528h-712.704c-12.288 0-20.48-10.24-20.48-20.48v-2.048l28.672-378.88c0-10.24 10.24-20.48 20.48-20.48h462.848c2.048 104.448 86.016 188.416 190.464 188.416zM837.632 388.608c-90.112 0-163.84-73.728-163.84-163.84s73.728-163.84 163.84-163.84c90.112 0 163.84 73.728 163.84 163.84s-73.728 163.84-163.84 163.84zM915.456 171.52c6.144-6.144 6.144-14.336 0-20.48l-4.096-4.096c-6.144-6.144-14.336-6.144-20.48 0l-53.248 53.248-53.248-53.248c-6.144-6.144-14.336-6.144-20.48 0l-4.096 4.096c-6.144 6.144-6.144 14.336 0 20.48l53.248 53.248-53.248 53.248c-6.144 6.144-6.144 14.336 0 20.48l4.096 4.096c6.144 6.144 14.336 6.144 20.48 0l53.248-53.248 53.248 53.248c6.144 6.144 14.336 6.144 20.48 0l4.096-4.096c6.144-6.144 6.144-14.336 0-20.48l-53.248-53.248 53.248-53.248z" />
</font>
</defs>
</svg>
